<?xml version="1.0" standalone="no"?>
<!DOCTYPE svg PUBLIC "-//W3C//DTD SVG 1.1//EN" "http://www.w3.org/Graphics/SVG/1.1/DTD/svg11.dtd" >
<svg xmlns="http://www.w3.org/2000/svg" xmlns:xlink="http://www.w3.org/1999/xlink" version="1.1">
<metadata></metadata>
<defs>
<font id="xenois_soft_proregular" horiz-adv-x="1134" >
<font-face units-per-em="2048" ascent="1548" descent="-500" />
<missing-glyph horiz-adv-x="567" />
<glyph unicode="&#xfb03;" horiz-adv-x="1765" d="M174 61v1076q0 67 8 139q7 67 41 119q34 53 95 82q63 30 171 30q37 0 74 -3q38 -3 51 -7q50 -11 50 -61q0 -28 -17 -45t-45 -17q-14 0 -49 3q-34 3 -59 3q-55 0 -88 -15t-51 -45q-17 -28 -23 -73q-6 -43 -6 -96v-102h473v90q0 68 8 138q8 66 41 118q34 53 95 82 q63 30 171 30q36 0 74 -3t51 -7q47 -11 47 -61q0 -28 -15 -45t-44 -17q-15 0 -49 3t-60 3q-55 0 -88 -15q-32 -14 -50 -45q-18 -30 -24 -73t-6 -96v-102h566q39 0 58 -22q17 -20 17 -58v-908q0 -38 -17 -58q-18 -21 -58 -21q-41 0 -59 21q-17 20 -17 58v863h-490v-863 q0 -38 -17 -58q-18 -21 -59 -21q-40 0 -58 21q-17 20 -17 58v863h-473v-863q0 -37 -18 -58t-58 -21q-41 0 -59 21q-17 20 -17 58zM1415 1346q0 46 24 73t77 27q52 0 76 -27t24 -73q0 -50 -24 -78q-24 -29 -76 -29q-53 0 -77 29q-24 28 -24 78z" />
<glyph unicode="&#xfb04;" horiz-adv-x="1765" d="M174 61v1076q0 67 8 139q7 67 41 119q34 53 95 82q63 30 171 30q37 0 74 -3q38 -3 51 -7q50 -11 50 -61q0 -28 -17 -45t-45 -17q-14 0 -49 3q-34 3 -59 3q-55 0 -88 -15t-51 -45q-17 -28 -23 -73q-6 -43 -6 -96v-102h473v90q0 68 8 138q8 66 41 118q34 53 95 82 q63 30 171 30q36 0 74 -3t51 -7q47 -11 47 -61q0 -28 -15 -45t-44 -17q-15 0 -49 3t-60 3q-55 0 -88 -15q-32 -14 -50 -45q-18 -30 -24 -73t-6 -96v-102h490v372q0 39 17 59q18 21 59 21q40 0 58 -21q17 -20 17 -59v-1360q0 -38 -17 -58q-18 -21 -58 -21q-41 0 -59 21 q-17 20 -17 58v863h-490v-863q0 -38 -17 -58q-18 -21 -59 -21q-40 0 -58 21q-17 20 -17 58v863h-473v-863q0 -37 -18 -58t-58 -21q-41 0 -59 21q-17 20 -17 58z" />
<glyph horiz-adv-x="0" />
<glyph horiz-adv-x="0" />
<glyph unicode="&#xd;" horiz-adv-x="567" />
<glyph unicode=" "  horiz-adv-x="567" />
<glyph unicode="&#x09;" horiz-adv-x="567" />
<glyph unicode="&#xa0;" horiz-adv-x="567" />
<glyph unicode="!" horiz-adv-x="600" d="M197 88q0 49 24 79t78 30q53 0 79 -30q25 -29 25 -79q0 -53 -24 -83t-80 -30q-55 0 -79 30q-23 29 -23 83zM217 1315v22q0 35 20 55q19 19 62 19q41 0 61 -19q21 -20 21 -55v-22q0 -20 -1 -30t-1 -30v-20l-14 -821q0 -76 -66 -76t-66 76l-14 823v19q0 19 -1 29t-1 30z " />
<glyph unicode="&#x22;" horiz-adv-x="819" d="M209 850v496q0 30 14 47q15 18 49 18q36 0 51 -18t15 -47v-496q0 -29 -15 -47q-16 -19 -51 -19q-33 0 -49 19q-14 17 -14 47zM481 850v496q0 29 15 47t49 18q35 0 50 -18t15 -47v-496q0 -29 -15 -47q-16 -19 -50 -19q-33 0 -49 19q-15 18 -15 47z" />
<glyph unicode="#" d="M59 410q0 69 70 69h117l90 434h-92q-38 0 -53 17q-15 16 -15 51t15 51q15 17 53 17h118l62 284q7 34 27 57q18 21 59 21q63 0 63 -53q0 -10 -4 -25l-59 -284h258l59 284q8 35 28 57q19 21 60 21q62 0 62 -53q0 -15 -2 -25l-60 -284h91q36 0 52 -16q15 -15 15 -50 q0 -34 -15 -52t-52 -18h-119l-88 -434h90q69 0 69 -67q0 -68 -69 -68h-117l-63 -285q-7 -34 -28 -56q-19 -21 -60 -21q-62 0 -62 53q0 14 2 24l64 285h-260l-60 -285q-8 -35 -27 -56q-20 -21 -61 -21q-61 0 -61 53q0 14 2 24l61 285h-90q-70 0 -70 66zM391 479h260l90 434 h-258z" />
<glyph unicode="$" d="M158 254q0 59 65 59q15 0 45 -6l72 -14q48 -9 90 -14q58 -7 100 -7q151 0 213 41t62 125q0 51 -13 84q-14 36 -47 60q-36 26 -85 40q-50 14 -130 25q-100 16 -165 34q-73 21 -114 53q-45 36 -65 86t-20 132q0 140 88 207t238 82v96q0 37 17 55q18 19 58 19q42 0 58 -19 t16 -55v-92q93 -5 151 -17q64 -14 99 -24q53 -15 53 -59q0 -29 -17 -45q-19 -17 -48 -17q-9 0 -46 7q-31 6 -72 12t-87 12t-92 6q-81 0 -126 -11q-51 -12 -79 -33q-29 -22 -41 -51q-12 -30 -12 -64q0 -43 12 -73q12 -29 43 -51q29 -20 81 -36q45 -14 124 -25 q108 -17 175 -37q74 -22 119 -55q46 -34 67 -90q22 -58 22 -137q0 -151 -83 -220q-81 -68 -243 -83v-99q0 -35 -16 -54t-58 -19q-40 0 -58 19q-17 18 -17 54v95q-99 2 -168 16q-74 15 -113 27q-53 17 -53 61z" />
<glyph unicode="%" horiz-adv-x="2267" d="M279 991q0 205 71 311q71 107 252 107q89 0 151 -28q58 -26 97 -81q37 -51 52 -131q16 -83 16 -178q0 -102 -17 -185q-17 -82 -53 -136q-38 -56 -99 -84q-64 -29 -155 -29q-92 0 -153 29q-60 28 -96 84t-51 136q-15 81 -15 185zM410 991q0 -61 5 -128q4 -59 24 -106 q19 -46 57 -73q37 -27 102 -27q64 0 101 27q39 28 58 73q20 47 24 106q5 67 5 128q0 58 -5 121q-5 58 -24 101q-20 44 -58 70t-101 26t-101 -26t-58 -70q-19 -43 -24 -101q-5 -63 -5 -121zM766 16q0 23 10 43l578 1274q18 38 40 57q24 21 60 21q47 0 47 -37q0 -21 -10 -41 l-578 -1274q-17 -35 -41 -56t-61 -21q-45 0 -45 34zM1350 418q0 204 71 310q72 108 252 108q89 0 151 -28q58 -26 97 -81q37 -51 52 -131q16 -83 16 -178q0 -103 -17 -186q-17 -82 -53 -136q-38 -56 -99 -84q-62 -28 -155 -28q-94 0 -153 28q-60 28 -96 84t-51 136 q-15 81 -15 186zM1481 418q0 -61 5 -128q5 -61 24 -107q19 -44 57 -72q37 -27 102 -27t102 27q38 28 57 72q19 46 24 107q6 80 6 128q0 45 -6 121q-5 58 -24 101q-20 44 -58 70q-37 25 -101 25t-101 -25q-38 -26 -58 -70q-19 -43 -24 -101q-5 -63 -5 -121z" />
<glyph unicode="&#x26;" horiz-adv-x="1312" d="M96 360q0 68 23 129q23 60 61 109q39 49 88 88t103 68q-88 101 -126 174q-40 76 -40 168q0 71 17 126q18 58 61 101q44 44 115 69t182 25q80 0 149 -13q73 -14 125 -30q21 -7 37 -23q14 -14 14 -40q0 -25 -14 -42q-15 -18 -49 -18q-40 0 -108 19q-64 18 -142 18 q-72 0 -114 -16q-43 -16 -69 -44t-35 -62t-9 -66q0 -60 42 -129q47 -77 119 -156l420 -467q39 68 59 163q19 91 25 222q1 33 19 55q17 21 55 21q37 0 56 -22q18 -21 18 -56q0 -51 -10 -124t-25 -133q-17 -67 -42 -128q-22 -54 -57 -106l132 -146q15 -16 25 -33q9 -15 9 -30 q0 -23 -16 -36t-49 -13q-46 0 -75 16q-30 16 -58 49l-68 76q-57 -60 -163 -104t-253 -44q-126 0 -212 28q-81 27 -132 79q-48 49 -68 122q-20 72 -20 156zM254 362q0 -51 11 -94q12 -46 42 -84q28 -35 85 -59q55 -23 143 -23q111 0 190 39q80 39 121 86l-389 437 q-31 -17 -74 -50q-38 -29 -66 -67t-46 -85q-17 -44 -17 -100z" />
<glyph unicode="'" horiz-adv-x="567" d="M209 850v496q0 30 16 47q17 18 58 18q40 0 58 -18q17 -17 17 -47v-496q0 -30 -17 -47q-19 -19 -58 -19q-41 0 -58 19q-16 17 -16 47z" />
<glyph unicode="(" horiz-adv-x="585" d="M117 711q0 95 16 178q17 88 42 166q28 86 59 149q39 77 71 129q23 37 48 57q27 21 73 21q47 0 47 -35q0 -23 -14 -43q-32 -50 -64 -118t-58 -154q-25 -84 -42 -174q-16 -87 -16 -176q0 -199 54 -360q55 -163 126 -292q14 -27 14 -43q0 -34 -47 -34q-45 0 -72 21 q-25 20 -49 56q-33 46 -71 124q-31 64 -59 155q-26 85 -42 178q-16 92 -16 195z" />
<glyph unicode=")" horiz-adv-x="585" d="M113 16q0 16 14 43q72 131 125 292q53 162 53 360q0 89 -16 176q-17 90 -42 174q-23 75 -58 154q-32 71 -62 118q-14 20 -14 43q0 35 47 35q45 0 72 -21t49 -57q28 -44 70 -129q34 -68 60 -149q25 -78 42 -166q16 -83 16 -178q0 -103 -16 -195q-16 -93 -42 -178t-60 -155 q-40 -83 -70 -124q-23 -35 -50 -56t-71 -21q-47 0 -47 34z" />
<glyph unicode="*" horiz-adv-x="849" d="M74 1114q0 49 57 49q59 0 110 -4q15 -1 51.5 -3.5t55.5 -4.5q-35 53 -61 90q-32 45 -62 94q-10 17 -10 37q0 19 20 34q19 15 35 15q21 0 43 -34q38 -66 58 -105q32 -63 55 -102q24 43 51 100q24 51 58 106q23 35 43 35q16 0 37 -15q22 -16 22 -34q0 -14 -12 -35 q-19 -31 -61 -93t-64 -93q19 2 56 4.5t53 3.5q51 4 110 4t59 -49q0 -53 -59 -53q-53 0 -110 3q-71 4 -109 7q5 -7 28.5 -40.5t36.5 -51.5q34 -47 62 -92q10 -17 10 -37q0 -19 -20 -34q-19 -15 -37 -15q-22 0 -43 33q-41 72 -57 104q-24 49 -54 106q-27 -50 -55 -104 q-15 -30 -58 -104q-21 -33 -43 -33q-19 0 -37 12t-18 33q0 22 10 39q22 36 60 91q30 44 63 93q-37 -3 -108 -7q-56 -3 -109 -3q-57 0 -57 53z" />
<glyph unicode="+" d="M106 530q0 34 18 53t58 19h310v389q0 36 17 56t58 20q42 0 58 -20t16 -56v-389h309q41 0 59 -19q17 -18 17 -53q0 -34 -17 -52q-18 -19 -59 -19h-309v-402q0 -34 -15 -55q-14 -20 -57 -20q-42 0 -59 20q-18 21 -18 55v402h-310q-40 0 -58 19q-18 20 -18 52z" />
<glyph unicode="," horiz-adv-x="567" d="M180 88q0 48 25 79q24 30 78 30q53 0 78 -30q26 -31 26 -79q0 -27 -6 -55q-6 -31 -21 -67q-3 -8 -15 -38.5t-20 -50.5t-27.5 -63.5t-25.5 -57.5q-15 -32 -47 -32q-35 0 -35 32q0 11 7 25l79 194q-47 0 -71 30q-25 31 -25 83z" />
<glyph unicode="-" horiz-adv-x="706" d="M88 635q0 34 17 52q18 20 59 20h379q40 0 58 -20q17 -18 17 -52t-17 -52q-18 -20 -58 -20h-379q-41 0 -59 20q-17 18 -17 52z" />
<glyph unicode="." horiz-adv-x="567" d="M180 88q0 48 25 79q24 30 78 30q53 0 78 -30q26 -31 26 -79q0 -52 -25 -83q-24 -30 -79 -30t-79 30t-24 83z" />
<glyph unicode="/" horiz-adv-x="567" d="M-92 -408q0 15 6 33l500 1798q11 37 31 57q21 21 61 21q55 0 55 -47q0 -13 -6 -31l-500 -1798q-11 -37 -32 -56q-24 -22 -62 -22q-53 0 -53 45z" />
<glyph unicode="0" d="M94 698q0 169 26 302q25 130 83 218t148 131q93 44 222 44q131 0 221 -44q88 -43 144 -131q55 -86 79 -218q23 -125 23 -302q0 -180 -24 -315q-24 -133 -80 -226q-56 -92 -148 -137t-227 -45q-132 0 -223 47q-90 47 -144 136q-55 91 -77 226q-23 140 -23 314zM258 698 q0 -103 8 -217q7 -101 39 -189q30 -83 92 -134q63 -52 170 -52q105 0 169 52q63 51 93 134q32 88 39 189q9 128 9 217q0 93 -10 206q-9 100 -41 181q-32 80 -93 128q-63 49 -166 49t-166 -49q-61 -48 -93 -128q-32 -81 -41 -181q-9 -102 -9 -206z" />
<glyph unicode="1" d="M221 1085q0 32 13 51q13 18 40 35l295 177q25 15 53 25q24 9 52 9q65 0 65 -63v-1188h219q76 0 76 -65q0 -66 -76 -66h-616q-78 0 -78 66q0 65 78 65h236v1071l-263 -155q-29 -17 -49 -17q-45 0 -45 55z" />
<glyph unicode="2" d="M106 66q0 28 16 50q15 21 38 38q108 87 240 201q116 101 200 201q89 106 136 206q50 106 50 215q0 59 -11 106q-12 52 -43 90q-32 39 -88 63q-57 24 -146 24q-100 0 -168 -18q-64 -17 -109 -17q-35 0 -49 17t-14 42q0 23 14 40q15 18 37 24q44 12 63 16q47 9 78 14 q49 7 85 11q39 4 85 4q126 0 208 -30t132 -83q49 -52 70 -131q20 -74 20 -172q0 -127 -60 -248q-57 -116 -153 -229t-202 -202q-124 -104 -209 -167h600q75 0 75 -65q0 -66 -75 -66h-742q-78 0 -78 66z" />
<glyph unicode="3" d="M82 84q0 25 14 42t49 17q52 0 136 -18q89 -19 200 -19q103 0 170 24q68 24 108 67t55 100t15 125q0 146 -71 221q-72 76 -221 76q-33 0 -58 -4t-51 -4q-68 0 -68 51q0 20 12 40q14 22 40 50l340 389h-545q-76 0 -76 64q0 63 76 63h674q42 0 59 -16q18 -16 18 -45 q0 -23 -17 -46q-24 -32 -40 -49l-348 -385q223 0 330 -93q106 -93 106 -312q0 -106 -27 -188t-88 -140q-62 -59 -153 -88q-98 -31 -227 -31q-103 0 -202 15q-111 17 -159 30q-22 6 -37 24q-14 17 -14 40z" />
<glyph unicode="4" d="M76 391q0 45 41 92q62 73 128 169q75 108 138 215q69 117 125 230q59 120 88 212q11 36 31 56q21 21 61 21q64 0 64 -67q0 -30 -25 -96q-24 -63 -65 -145q-34 -69 -94 -171q-58 -100 -107 -175q-55 -84 -110 -158q-53 -70 -99 -115h590v278q0 35 18 55q18 19 58 19 q38 0 56 -19q17 -18 17 -55v-682q0 -35 -18 -54t-58 -19q-38 0 -56 19q-17 18 -17 54v275h-688q-43 0 -60 16q-18 16 -18 45z" />
<glyph unicode="5" d="M94 88q0 24 15 41q15 16 49 16q53 0 135 -19q86 -20 192 -20q105 0 172 24q70 25 109 67q41 44 57 100q17 59 17 125q0 145 -81 226t-274 81q-85 0 -153 -17q-72 -18 -111 -18q-30 0 -43 16q-12 15 -12 42v555q0 29 17 45t59 16h643q78 0 78 -63q0 -64 -78 -64h-574v-424 q4 1 31 8q36 10 52 12q30 5 66 9q32 4 72 4q125 0 217 -28q87 -27 144 -82q55 -54 81 -134q25 -78 25 -184q0 -220 -117 -333q-118 -114 -384 -114q-43 0 -98 5q-64 6 -96 11q-46 7 -87 15q-15 3 -72 17q-21 5 -36 24q-15 18 -15 41z" />
<glyph unicode="6" d="M96 438q0 80 21 159q21 80 73 178q53 99 145 231q93 132 232 313q21 29 54 50q27 17 69 17q62 0 62 -47q0 -15 -11 -32q-17 -27 -20 -31l-359 -473q28 27 102 55q70 27 148 27q212 0 321 -115q107 -113 107 -332q0 -229 -121 -346t-358 -117t-351 117t-114 346zM254 438 q0 -63 13 -121q14 -60 49 -106q36 -47 97 -77q60 -30 154 -30t155 29q60 28 95 76q35 47 48 106q14 62 14 123q0 56 -15 113t-49 103q-34 45 -95 76q-60 30 -153 30q-99 0 -161 -30t-96 -76q-33 -44 -45 -103q-11 -52 -11 -113z" />
<glyph unicode="7" d="M150 1100v205q0 63 79 63h725q43 0 58 -14q16 -15 16 -43t-22 -72q-74 -144 -144 -304q-66 -151 -133 -323q-60 -154 -108 -304q-52 -160 -72 -249q-8 -35 -32 -56t-68 -21q-72 0 -72 59q0 28 23 101t62 184q27 77 88 232q33 84 103 250q28 67 107 238q45 98 98 195h-567 v-141q0 -34 -18 -54t-54 -20t-53 20q-16 19 -16 54z" />
<glyph unicode="8" d="M94 369q0 72 23 130q23 57 61 97q41 43 91 67q49 24 114 35q-103 21 -170 99q-68 79 -68 225q0 172 115 272q114 99 313 99q200 0 308 -99t108 -272q0 -71 -20 -121q-22 -54 -55 -92q-36 -41 -76 -63q-42 -23 -88 -31q128 -27 209 -108t81 -238q0 -200 -120 -296 q-122 -98 -359 -98t-352 98t-115 296zM254 377q0 -50 13 -98q14 -50 48 -89q34 -38 96 -63t156 -25t158 25q61 24 96 63q35 40 47 89q13 54 13 98q0 137 -83 202q-82 64 -231 64t-230 -62q-83 -63 -83 -204zM297 1018q0 -254 270 -254q140 0 205 65q66 66 66 189 q0 39 -13 88q-12 44 -43 80q-30 34 -83 57q-54 23 -132 23q-80 0 -134 -23q-53 -23 -83 -57t-42 -79q-11 -40 -11 -89z" />
<glyph unicode="9" d="M94 958q0 92 31 174q29 76 91 137q59 57 151 91q90 33 206 33q118 0 206 -32q89 -32 145 -88q58 -58 86 -136t28 -179q0 -90 -24 -174q-24 -83 -81 -187q-60 -108 -147 -235q-65 -94 -221 -313q-21 -31 -53 -50q-28 -17 -72 -17q-61 0 -61 45q0 17 11 33q8 12 22 32 l360 500q-30 -28 -101 -54q-72 -26 -149 -26q-214 0 -321 120q-107 121 -107 326zM256 958q0 -57 13 -112q14 -58 48 -104q32 -43 96 -75q60 -30 154 -30q101 0 162 30q62 30 95 75q32 44 45 105q12 59 12 114q0 47 -14 103t-49 98q-37 45 -96 73q-61 29 -155 29 q-93 0 -154 -29q-62 -29 -96 -74q-35 -45 -48 -99q-13 -52 -13 -104z" />
<glyph unicode=":" horiz-adv-x="567" d="M180 88q0 48 25 79q24 30 78 30q53 0 78 -30q26 -31 26 -79q0 -52 -25 -83q-24 -30 -79 -30t-79 30t-24 83zM180 967q0 47 25 77q24 29 78 29q52 0 78 -29t26 -77q0 -53 -25 -84t-79 -31t-79 31q-24 30 -24 84z" />
<glyph unicode=";" horiz-adv-x="567" d="M180 88q0 48 25 79q24 30 78 30q53 0 78 -30q26 -31 26 -79q0 -27 -6 -55q-6 -31 -21 -67q-3 -8 -15 -38.5t-20 -50.5t-27.5 -63.5t-25.5 -57.5q-15 -32 -47 -32q-35 0 -35 32q0 11 7 25l79 194q-47 0 -71 30q-25 31 -25 83zM180 967q0 47 25 77q24 29 78 29q52 0 78 -29 t26 -77q0 -53 -25 -84t-79 -31t-79 31q-24 30 -24 84z" />
<glyph unicode="&#x3c;" d="M80 524q0 45 21 69q19 21 51 40l770 414q6 4 19 7q12 3 22 3q65 0 65 -74q0 -33 -17 -50t-44 -32l-693 -377l693 -379q27 -15 44 -32t17 -50q0 -75 -65 -75q-10 0 -22 3q-13 3 -19 7l-770 418q-32 19 -51 40q-21 24 -21 68z" />
<glyph unicode="=" d="M106 330q0 29 18 47t58 18h768q41 0 59 -18q17 -17 17 -47t-17 -48q-18 -20 -59 -20h-768q-40 0 -58 20t-18 48zM106 719q0 29 18 48t58 19h768q41 0 59 -19q17 -18 17 -48t-17 -47q-19 -19 -59 -19h-768q-39 0 -58 19q-18 18 -18 47z" />
<glyph unicode="&#x3e;" d="M106 66q0 30 17 49q15 17 43 32l692 377l-692 377q-28 15 -43 32q-17 19 -17 50q0 74 64 74q9 0 21 -3q14 -4 20 -7l770 -414q30 -17 51 -40q23 -25 23 -69q0 -43 -23 -68q-21 -23 -51 -40l-770 -416q-16 -10 -39 -10q-66 0 -66 76z" />
<glyph unicode="?" horiz-adv-x="866" d="M74 1319q0 27 15 42t38 21q44 12 110 24q59 11 136 11q114 0 186 -22q73 -23 118 -67q43 -43 61 -107q18 -63 18 -144q0 -77 -23 -138q-24 -63 -57 -111q-33 -47 -77 -96q-44 -48 -79 -95q-36 -47 -64 -107q-29 -61 -36 -131q-6 -61 -70 -61q-35 0 -47 16t-12 45 q0 115 47 201q46 85 104 161q69 90 105 149q47 76 47 167q0 47 -10 83q-11 40 -37 66q-28 28 -74 43q-47 15 -123 15q-72 0 -125 -13q-58 -14 -90 -14q-34 0 -48 17q-13 16 -13 45zM248 88q0 50 25 79q25 30 79 30t78 -30q25 -31 25 -79q0 -53 -24 -83t-79 -30q-56 0 -80 30 t-24 83z" />
<glyph unicode="@" horiz-adv-x="1986" d="M131 469q0 205 69 379q70 177 192 300q125 126 298 198q172 71 383 71q186 0 333 -57q145 -56 246 -157q98 -98 151 -233q52 -132 52 -288q0 -163 -38 -287q-39 -127 -105 -214q-67 -89 -149 -134q-85 -47 -177 -47q-41 0 -73 13t-57 35q-21 18 -36 47q-14 26 -14 52 q-12 -28 -48 -55q-32 -24 -86 -47q-50 -21 -111 -33t-127 -12q-179 0 -270 97t-91 255q0 102 37 212q39 115 113 205q79 96 193 154q118 60 280 60q50 0 96 -6q48 -6 89 -15q37 -8 75 -20q33 -10 51 -18q37 -16 37 -50q0 -17 -4 -28l-117 -535q-3 -9 -5 -29q-1 -12 -1 -28 q0 -60 31 -93q30 -32 71 -32q53 0 105 40q53 41 96 112q44 73 71 174q27 102 27 225q0 130 -45 242t-129 195q-85 83 -204 131q-120 48 -271 48q-172 0 -318 -58q-145 -58 -254 -167q-108 -108 -168 -261q-61 -156 -61 -341q0 -178 49 -324q50 -148 147 -254t239 -166 q145 -61 329 -61q130 0 235 17q111 18 174 35q74 20 119 36q48 17 70 17q64 0 64 -54q0 -25 -15 -41q-14 -15 -37 -26q-42 -19 -113 -40q-59 -17 -147 -34q-80 -15 -171 -24t-185 -9q-234 0 -404 75q-169 75 -279 203t-161 296t-51 354zM633 352q0 -101 58 -162t173 -61 q61 0 110 14q51 14 92 39q36 21 67 56q26 29 34 63l117 514q-33 16 -97 28q-58 11 -120 11q-103 0 -185 -47q-81 -46 -137 -121q-53 -70 -83 -163q-29 -90 -29 -171z" />
<glyph unicode="A" horiz-adv-x="1294" d="M68 43q0 6 2 22q1 10 6 21l452 1253q11 30 38 51t83 21q57 0 83 -20q27 -21 38 -52l451 -1251q4 -15 4 -17q2 -16 2 -20q0 -34 -23 -52q-21 -17 -57 -17q-57 0 -80 63l-115 332h-620l-115 -338q-18 -57 -76 -57q-35 0 -54 15t-19 46zM375 508h534l-266 766z" />
<glyph unicode="B" horiz-adv-x="1284" d="M197 84v1225q0 42 20 62q22 22 68 22h409q86 0 168 -16q75 -15 131 -54q55 -38 85 -105q30 -66 30 -171q0 -135 -69 -218q-68 -81 -199 -104q154 -17 230 -97q77 -82 77 -251q0 -116 -37 -189q-38 -74 -99 -115q-65 -43 -144 -58q-81 -15 -169 -15h-413q-46 0 -68 22 q-20 20 -20 62zM358 129h291q92 0 148 11q62 12 101 41t59 80t20 128q0 78 -21 129q-22 54 -59 82q-41 31 -92 43q-53 12 -117 12h-330v-526zM358 780h322q75 0 127 20q54 21 82 53q32 37 43 80q12 47 12 99q0 129 -64 180q-66 52 -218 52h-304v-484z" />
<glyph unicode="C" horiz-adv-x="1136" d="M131 711q0 349 129 528q129 178 422 178q96 0 162 -12q63 -12 119 -29q20 -7 36 -24q15 -16 15 -45t-15 -47q-16 -19 -49 -19q-46 0 -104 17q-62 18 -152 18q-132 0 -212 -48q-76 -46 -118 -128q-40 -78 -52 -181q-11 -93 -11 -208q0 -121 10 -222q11 -109 50 -189 q41 -83 119 -132q79 -49 214 -49q102 0 161 17q63 18 110 18q33 0 49 -19q14 -17 14 -47t-14 -45q-17 -18 -37 -25q-51 -17 -138 -31q-75 -12 -186 -12q-152 0 -257 48q-99 45 -159 139q-58 90 -82 229q-24 137 -24 320z" />
<glyph unicode="D" horiz-adv-x="1357" d="M197 84v1225q0 42 20 62q22 22 68 22h288q204 0 333 -44q128 -44 199 -131t96 -214q26 -130 26 -293q0 -181 -31 -319q-30 -133 -107 -221q-76 -87 -208 -129q-131 -42 -330 -42h-266q-46 0 -68 22q-20 20 -20 62zM358 135h179q164 0 266 33q103 33 159 103q55 68 75 180 q20 111 20 260q0 124 -16 233q-15 104 -67 172q-54 71 -151 106q-96 35 -264 35h-201v-1122z" />
<glyph unicode="E" horiz-adv-x="1153" d="M197 84v1225q0 42 20 62q22 22 68 22h641q82 0 82 -68q0 -70 -82 -70h-568v-477h531q82 0 82 -65q0 -66 -82 -66h-531v-510h592q82 0 82 -67q0 -70 -82 -70h-665q-46 0 -68 22q-20 20 -20 62z" />
<glyph unicode="F" horiz-adv-x="1091" d="M197 59v1250q0 42 20 62q22 22 68 22h616q82 0 82 -68q0 -33 -19 -52q-20 -20 -63 -20h-543v-510h506q82 0 82 -69q0 -70 -82 -70h-506v-545q0 -35 -18 -56t-61 -21t-63 21q-19 20 -19 56z" />
<glyph unicode="G" horiz-adv-x="1290" d="M131 711q0 349 134 528q133 178 440 178q106 0 184 -12q73 -11 133 -29q23 -6 37 -23t14 -46q0 -30 -14 -45q-15 -17 -49 -17q-44 0 -123 17q-74 16 -180 16q-141 0 -220 -48q-78 -47 -121 -128q-42 -79 -54 -182q-11 -93 -11 -209q0 -121 10 -224q11 -108 48 -192 t115 -134q77 -50 210 -50q101 0 170 13q75 14 107 28v473h-211q-62 0 -62 65q0 64 62 64h284q43 0 63 -22q19 -20 19 -56v-551q0 -67 -57 -88q-75 -26 -171 -43q-108 -19 -212 -19q-159 0 -267 48q-105 46 -167 139q-62 92 -86 229q-25 142 -25 320z" />
<glyph unicode="H" horiz-adv-x="1355" d="M197 59v1274q0 37 19 57q20 21 63 21t61 -21t18 -57v-540h637v540q0 35 20 57q19 21 62 21q44 0 62 -21t18 -57v-1274q0 -35 -18 -56t-62 -21q-43 0 -62 21q-20 22 -20 56v594h-637v-594q0 -35 -18 -56t-61 -21t-63 21q-19 20 -19 56z" />
<glyph unicode="I" horiz-adv-x="557" d="M197 59v1274q0 37 19 57q20 21 63 21t61 -21t18 -57v-1274q0 -35 -18 -56t-61 -21t-63 21q-19 20 -19 56z" />
<glyph unicode="J" horiz-adv-x="784" d="M37 70q0 30 14 47q15 18 49 18q21 0 59 -8t79 -8q72 0 110 17q43 19 64 50t29 80q8 50 8 109v958q0 36 18 57t61 21q44 0 62 -21t18 -57v-958q0 -96 -10 -166q-11 -75 -47 -126q-38 -53 -109 -80q-75 -28 -194 -28q-48 0 -100 9q-41 7 -60 14q-21 7 -37 26q-14 17 -14 46 z" />
<glyph unicode="K" horiz-adv-x="1208" d="M197 59v1274q0 37 19 57q20 21 63 21t61 -21t18 -57v-557l525 563q31 34 60 53t63 19q65 0 65 -51q0 -18 -14 -38q-17 -24 -31 -38l-510 -528l563 -656q31 -36 31 -65q0 -24 -21 -39q-20 -14 -57 -14q-43 0 -73 20q-35 23 -62 57l-539 643v-643q0 -35 -18 -56t-61 -21 t-63 21q-19 20 -19 56z" />
<glyph unicode="L" horiz-adv-x="1030" d="M197 84v1249q0 37 19 57q20 21 63 21t61 -21t18 -57v-1188h494q43 0 62 -19q20 -20 20 -52t-20 -54q-19 -20 -62 -20h-567q-46 0 -68 22q-20 20 -20 62z" />
<glyph unicode="M" horiz-adv-x="1789" d="M197 59v1270q0 82 135 82q74 0 105 -25q29 -23 44 -61l418 -1178l424 1178q12 34 41 60t98 26q129 0 129 -82v-1270q0 -35 -18 -56t-60 -21q-41 0 -59 21t-18 56v1194l-439 -1198q-11 -32 -34 -52q-24 -21 -72 -21q-49 0 -72 22q-25 23 -35 51l-438 1198v-1194 q0 -36 -16 -56q-16 -21 -58 -21q-40 0 -58 21q-17 20 -17 56z" />
<glyph unicode="N" horiz-adv-x="1413" d="M197 59v1270q0 82 127 82q69 0 100 -26t47 -60l598 -1165v1173q0 37 16 57q17 21 58 21t57 -21q17 -22 17 -57v-1270q0 -81 -127 -81q-72 0 -101 25q-30 26 -47 61l-598 1165v-1174q0 -36 -16 -56q-16 -21 -58 -21q-40 0 -57 21q-16 20 -16 56z" />
<glyph unicode="O" horiz-adv-x="1378" d="M131 711q0 173 30 307q30 132 96 221q65 88 174 133q108 45 263 45q156 0 262 -45q107 -45 171 -133q67 -92 93 -221q27 -134 27 -307q0 -185 -28 -321q-28 -138 -95 -230q-66 -92 -174 -138q-109 -47 -268 -47q-157 0 -265 48q-105 47 -169 139q-63 91 -90 229 q-27 137 -27 320zM301 711q0 -120 10 -223q10 -107 48 -191t116 -134q79 -50 213 -50t213 50q78 49 117 134q38 83 49 191q10 103 10 223q0 117 -11 211q-13 106 -51 182q-41 80 -117 128t-210 48t-210 -48t-117 -128q-39 -77 -50 -182q-10 -97 -10 -211z" />
<glyph unicode="P" horiz-adv-x="1222" d="M197 59v1250q0 42 20 62q22 22 68 22h407q194 0 304 -98t110 -310q0 -208 -121 -313t-326 -105h-301v-508q0 -35 -18 -56t-61 -21t-63 21q-19 20 -19 56zM358 705h271q311 0 311 280q0 130 -67 202q-66 70 -222 70h-293v-552z" />
<glyph unicode="Q" horiz-adv-x="1386" d="M131 711q0 173 30 307q30 132 96 221q65 88 174 133q108 45 263 45q156 0 262 -45q107 -45 171 -133q67 -92 93 -221q27 -134 27 -307q0 -205 -39 -344q-40 -143 -116 -226h161q76 0 76 -69q0 -35 -17 -53q-18 -19 -59 -19h-301q-36 0 -61 -4q-10 -2 -30.5 -4.5 t-29.5 -3.5q-12 -2 -35.5 -4.5t-30.5 -3.5q-40 -5 -83 -5q-157 0 -265 48q-105 47 -169 139q-63 91 -90 229q-27 137 -27 320zM301 711q0 -120 10 -223q10 -107 48 -191t116 -134q79 -50 213 -50t213 50q78 49 117 134q38 83 49 191q10 103 10 223q0 117 -11 211 q-13 106 -51 182q-41 80 -117 128t-210 48t-210 -48t-117 -128q-39 -77 -50 -182q-10 -97 -10 -211z" />
<glyph unicode="R" horiz-adv-x="1280" d="M197 59v1250q0 42 20 62q22 22 68 22h420q95 0 175 -24q77 -23 134 -71q55 -46 85 -121q29 -73 29 -176q0 -84 -22 -146t-63 -109t-96 -76q-62 -33 -122 -49l301 -533l9 -18q4 -9 4 -21q0 -34 -23 -51q-22 -16 -61 -16q-58 0 -90 59l-303 555h-304v-537q0 -35 -18 -56 t-61 -21t-63 21q-19 20 -19 56zM358 723h250q192 0 274 73q81 72 81 201q0 122 -67 192q-65 68 -222 68h-316v-534z" />
<glyph unicode="S" horiz-adv-x="1140" d="M133 86q0 30 14 48q15 20 50 20q44 0 135 -20q86 -19 198 -19q169 0 240 64q72 65 72 177q0 134 -76 197q-78 64 -231 92q-97 16 -173 44q-70 26 -122 73q-50 46 -74 111q-25 69 -25 165q0 104 34 175q36 74 94 118q60 45 143 66q79 20 180 20q105 0 195 -13 q94 -14 149 -30q22 -7 37 -24q14 -15 14 -45t-14 -47t-49 -17q-38 0 -127 19q-84 18 -193 18q-83 0 -140 -18q-53 -17 -91 -50q-35 -31 -50 -72q-16 -45 -16 -89q0 -118 70 -176q68 -56 225 -85q102 -17 181 -47q79 -29 127 -76q51 -50 75 -118q25 -72 25 -172 q0 -115 -33 -192t-93 -123q-58 -45 -147 -65q-88 -20 -194 -20q-50 0 -110 5q-66 6 -102 10q-43 5 -86 14q-34 7 -61 14q-21 6 -37 23q-14 15 -14 45z" />
<glyph unicode="T" horiz-adv-x="1107" d="M72 1321q0 33 19 52q20 20 63 20h802q43 0 63 -20q19 -19 19 -52t-19 -53q-19 -21 -63 -21h-319v-1188q0 -34 -20 -56q-19 -21 -62 -21t-61 21q-19 22 -19 56v1188h-321q-44 0 -63 21q-19 20 -19 53z" />
<glyph unicode="U" horiz-adv-x="1355" d="M184 500v833q0 35 20 57q19 21 62 21q44 0 62 -21t18 -57v-833q0 -91 15 -160q15 -67 54 -119q37 -49 102 -75q63 -25 161 -25t160 25q64 26 101 75q38 50 53 119q16 74 16 160v833q0 36 18 57t61 21t63 -21q19 -20 19 -57v-833q0 -123 -22 -218q-23 -98 -79 -165 q-57 -67 -153 -105q-95 -37 -243 -37q-149 0 -242 37q-94 37 -148 105q-55 69 -76 165q-22 102 -22 218z" />
<glyph unicode="V" horiz-adv-x="1286" d="M80 1341q0 36 23 53t59 17q61 0 82 -63l403 -1205l406 1211q18 57 77 57q76 0 76 -61q0 -6 -2 -22q-1 -10 -6 -21l-446 -1254q-11 -29 -33 -50q-23 -21 -76 -21q-54 0 -80 20t-37 51l-440 1252q-4 15 -4 17q-2 16 -2 19z" />
<glyph unicode="W" horiz-adv-x="1951" d="M92 1348q0 63 84 63q67 0 82 -59l291 -1205l315 1192q11 34 40 53t79 19q51 0 77 -19q27 -20 38 -53l317 -1192l291 1205q12 59 74 59q37 0 58 -15q22 -16 22 -48q0 -6 -2 -22q-1 -5 -3 -11.5t-2 -7.5l-323 -1254q-7 -31 -36 -52q-26 -19 -81 -19q-52 0 -80 19 q-29 20 -39 52l-319 1198l-320 -1198q-10 -32 -38 -52q-26 -19 -80 -19q-52 0 -80 19q-30 20 -37 52l-322 1254l-2 7q-1 7 -2 12q-2 16 -2 22z" />
<glyph unicode="X" horiz-adv-x="1247" d="M92 31q0 17 7 32q7 17 18 33l407 627l-362 573q-7 12 -18 34q-7 14 -7 32q0 22 22 36q20 13 56 13q40 0 60 -17q21 -18 42 -51l316 -509l307 509q21 33 42 51q20 17 56 17q32 0 52 -13t20 -36q0 -18 -7 -32q-11 -22 -18 -34l-362 -573l407 -627q14 -22 19 -33 q8 -18 8 -32q0 -23 -22 -36t-58 -13q-42 0 -63 17q-23 18 -43 50l-359 561l-346 -561q-19 -32 -42 -49q-24 -18 -60 -18q-31 0 -51 13q-21 13 -21 36z" />
<glyph unicode="Y" horiz-adv-x="1216" d="M80 1362q0 23 22 36t58 13q39 0 59 -16t39 -52l358 -630l355 630q19 36 39 52t55 16q31 0 51 -13q21 -14 21 -36q0 -26 -23 -66l-426 -733v-504q0 -35 -18 -56t-62 -21q-42 0 -62 21q-20 22 -20 56v504l-426 733q-20 33 -20 66z" />
<glyph unicode="Z" horiz-adv-x="1101" d="M109 70q0 31 22 78q23 49 62 112l593 995h-577q-82 0 -82 70q0 68 82 68h684q82 0 82 -66q0 -30 -22 -79q-18 -40 -60 -111l-594 -1000h612q82 0 82 -67q0 -70 -82 -70h-721q-81 0 -81 70z" />
<glyph unicode="[" horiz-adv-x="655" d="M166 84v1225q0 42 19 62q20 22 67 22h209q37 0 56 -19q18 -18 18 -47t-18 -47t-56 -18h-137v-1131h137q38 0 56 -18t18 -47q0 -30 -18 -48t-56 -18h-209q-47 0 -67 22q-19 20 -19 62z" />
<glyph unicode="\" horiz-adv-x="567" d="M4 1454q0 47 55 47q40 0 61 -21t32 -57l499 -1798q6 -18 6 -33q0 -45 -53 -45q-37 0 -61 22q-22 21 -33 56l-500 1798q-6 18 -6 31z" />
<glyph unicode="]" horiz-adv-x="655" d="M123 66q0 30 16 47q17 18 56 18h139v1131h-139q-39 0 -56 18q-16 17 -16 47t16 47q17 19 56 19h208q46 0 68 -22q21 -21 21 -62v-1225q0 -41 -21 -62q-22 -22 -68 -22h-208q-39 0 -56 18q-16 17 -16 48z" />
<glyph unicode="^" d="M147 827q0 5 4 15t7 14l307 506q11 20 36 34q25 15 66 15q42 0 66 -15t35 -34l309 -506q3 -4 7 -14q3 -8 3 -15q0 -21 -21 -32q-22 -11 -55 -11q-27 0 -48 13q-18 11 -29 28l-273 443l-272 -443q-10 -15 -29 -28q-20 -13 -47 -13q-66 0 -66 43z" />
<glyph unicode="_" horiz-adv-x="1024" d="M0 -205q0 51 59 51h908q59 0 59 -51t-59 -51h-908q-59 0 -59 51z" />
<glyph unicode="`" horiz-adv-x="499" d="M41 1466q0 35 53 35q50 0 72 -14q25 -15 35 -33l121 -197q16 -23 16 -47q0 -28 -37 -28q-35 0 -54 11q-23 13 -34 28l-156 204q-8 14 -11 22q-5 13 -5 19z" />
<glyph unicode="a" horiz-adv-x="1085" d="M104 285q0 69 25 133q23 60 86 107q61 46 163 73t255 27h133v108q0 117 -55 165t-191 48q-110 0 -180 -16q-74 -17 -100 -17q-60 0 -60 60q0 47 47 59q64 17 148 29q86 12 184 12q188 0 274 -75q85 -75 85 -257v-635q0 -60 -52 -77q-63 -19 -160 -36q-102 -18 -204 -18 q-113 0 -191 20q-75 19 -122 57q-45 36 -65 96t-20 137zM256 289q0 -47 10 -81q11 -37 39 -61q29 -24 78 -36q54 -13 129 -13q65 0 134 12q85 15 120 23v385h-129q-124 0 -199 -19q-72 -18 -115 -52q-41 -31 -54 -72q-13 -39 -13 -86z" />
<glyph unicode="b" horiz-adv-x="1159" d="M174 104v1317q0 39 17 59q18 21 59 21q40 0 58 -21t18 -59v-391q39 13 117 29q70 14 173 14q234 0 331 -135q97 -134 97 -401q0 -139 -24 -244q-23 -102 -79 -175q-55 -72 -142 -107q-89 -36 -215 -36q-111 0 -204 15q-97 16 -157 37q-49 16 -49 77zM326 141 q35 -14 112 -27q72 -12 154 -12q103 0 162 37q58 36 89 98q29 59 37 138q7 73 7 162q0 73 -8 151q-7 71 -39 131q-30 57 -89 92t-159 35q-88 0 -155 -10q-71 -10 -111 -27v-768z" />
<glyph unicode="c" horiz-adv-x="948" d="M115 537q0 269 106 402q107 134 342 134q50 0 117 -8q60 -7 117 -25q23 -6 36 -21q13 -14 13 -40q0 -27 -13 -43t-49 -16q-33 0 -88 13t-123 13q-100 0 -161 -35q-60 -34 -90 -92q-31 -59 -40 -131q-10 -82 -10 -151q0 -68 9 -162q8 -79 37 -138q30 -61 91 -97 q60 -36 164 -36q32 0 70 5q46 6 66 9q30 4 54 9q21 4 36 4q35 0 47 -15t12 -42q0 -49 -47 -64q-58 -16 -131 -25q-80 -10 -143 -10q-125 0 -206 36t-129 107q-49 72 -68 175q-19 102 -19 244z" />
<glyph unicode="d" horiz-adv-x="1159" d="M115 537q0 269 106 402q107 134 330 134q82 0 159 -13q78 -13 121 -28v389q0 37 19 59q18 21 59 21t59 -21q17 -20 17 -59v-1317q0 -61 -51 -77q-65 -21 -165 -37q-95 -15 -210 -15q-127 0 -213 36t-137 107q-53 73 -73 175q-21 105 -21 244zM272 537q0 -68 9 -162 q8 -79 37 -138q30 -60 89 -98q58 -37 160 -37q41 0 82 3q8 1 78 9q34 4 65 11q27 6 39 12v770q-38 16 -111 28q-65 11 -153 11q-97 0 -156 -35t-89 -93q-31 -61 -40 -132q-10 -82 -10 -149z" />
<glyph unicode="e" horiz-adv-x="1067" d="M115 537q0 269 99 402q99 134 331 134q223 0 318 -125t95 -368q0 -39 -17 -59q-18 -21 -58 -21h-615q0 -75 11 -150q11 -72 42 -126t92 -87q60 -33 162 -33q101 0 177 17q71 16 102 16q30 0 44 -17q15 -18 15 -46q0 -50 -47 -62q-54 -15 -146 -26q-91 -11 -194 -11 q-122 0 -201 36t-126 107q-49 74 -66 175q-18 105 -18 244zM268 608h545q-1 63 -11 129q-9 61 -38 110q-28 48 -82 77q-52 28 -143 28t-143 -28q-53 -29 -80 -77t-36 -111q-11 -76 -12 -128z" />
<glyph unicode="f" horiz-adv-x="735" d="M174 61v1076q0 67 8 139q7 67 41 119q34 53 95 82q63 30 171 30q37 0 74 -3q38 -3 51 -7q50 -11 50 -61q0 -28 -17 -45t-45 -17q-14 0 -49 3q-34 3 -59 3q-55 0 -88 -15t-51 -45q-17 -28 -23 -73q-6 -43 -6 -96v-102h264q34 0 48 -17q13 -16 13 -45t-13 -46t-48 -17h-264 v-863q0 -37 -18 -58t-58 -21q-41 0 -59 21q-17 20 -17 58z" />
<glyph unicode="g" horiz-adv-x="1159" d="M115 537q0 269 109 402q110 134 351 134q103 0 200 -15q90 -14 159 -34q51 -16 51 -78v-1071q0 -96 -32 -160q-31 -62 -85 -102q-51 -38 -124 -55t-146 -17q-103 0 -201 8q-84 7 -166 27q-47 12 -47 59q0 28 16 46q15 16 44 16q50 0 121 -14q77 -15 184 -15q142 0 214 51 t71 168l-3 156q-35 -11 -111 -27q-74 -16 -171 -16q-128 0 -211 34q-84 35 -133 101q-49 67 -70 168q-20 96 -20 234zM272 537q0 -64 9 -152q8 -75 37 -131q30 -57 89 -92t160 -35q83 0 156 12q68 11 108 25v747q-45 12 -116 24q-63 11 -148 11q-95 0 -154 -35t-89 -93 q-31 -60 -41 -132q-11 -77 -11 -149z" />
<glyph unicode="h" horiz-adv-x="1163" d="M174 61v1360q0 39 17 59q18 21 59 21q40 0 58 -21t18 -59v-389q6 2 40 11q36 9 67 14q45 7 79 11q45 5 78 5q131 0 208 -26q78 -27 121 -89q41 -60 56 -164q14 -97 14 -257v-476q0 -38 -17 -58q-18 -21 -59 -21q-40 0 -58 21q-17 20 -17 58v476q0 118 -13 204 q-12 78 -43 125q-30 45 -84 62q-51 16 -133 16q-38 0 -70 -4q-36 -4 -69 -9q-25 -3 -59 -11q-19 -4 -41 -13v-846q0 -37 -18 -58t-58 -21q-41 0 -59 21q-17 20 -17 58z" />
<glyph unicode="i" horiz-adv-x="499" d="M150 1346q0 47 23 73q24 27 77 27t77 -27q23 -26 23 -73q0 -51 -23 -78q-24 -29 -77 -29t-77 29q-23 27 -23 78zM174 61v926q0 39 17 59q18 21 59 21q40 0 58 -21t18 -59v-926q0 -37 -18 -58t-58 -21q-41 0 -59 21q-17 20 -17 58z" />
<glyph unicode="j" horiz-adv-x="499" d="M-76 -387q0 27 16 46q14 17 44 17q4 0 32 -2t35 -2q78 0 101 61q22 59 22 165v1089q0 39 17 59q18 21 59 21q40 0 58 -21t18 -59v-1075q0 -64 -8 -134t-33 -119q-27 -52 -79 -85q-53 -33 -140 -33q-21 0 -55 2q-25 1 -40 6q-47 11 -47 64zM150 1346q0 47 23 73 q24 27 77 27t77 -27q23 -26 23 -73q0 -51 -23 -78q-24 -29 -77 -29t-77 29q-23 27 -23 78z" />
<glyph unicode="k" horiz-adv-x="1048" d="M174 61v1360q0 39 17 59q18 21 59 21q40 0 58 -21t18 -59v-805l415 388q24 22 57 46q24 17 54 17q63 0 63 -47q0 -14 -12 -34q-11 -17 -29 -34l-399 -360l469 -502q29 -34 29 -59q0 -23 -21 -36q-20 -13 -53 -13q-42 0 -68 19q-24 17 -55 50l-450 496v-486q0 -37 -18 -58 t-58 -21q-41 0 -59 21q-17 20 -17 58z" />
<glyph unicode="l" horiz-adv-x="499" d="M174 61v1360q0 39 17 59q18 21 59 21q40 0 58 -21t18 -59v-1360q0 -37 -18 -58t-58 -21q-41 0 -59 21q-17 20 -17 58z" />
<glyph unicode="m" horiz-adv-x="1728" d="M174 61v883q0 60 53 78q65 21 149 36q83 15 173 15q189 0 272 -67q8 3 53 19q23 8 81 23q32 8 100 18q49 7 108 7q129 0 204 -25q77 -26 119 -89q42 -62 55 -165q13 -100 13 -257v-476q0 -38 -17 -58q-18 -21 -58 -21q-41 0 -59 21q-17 20 -17 58v476q0 131 -11 204 q-12 82 -41 125q-31 46 -79 62t-125 16q-41 0 -81 -6q-45 -7 -74 -13q-22 -5 -58 -16q-25 -8 -33 -14q21 -50 34 -133q11 -73 11 -225v-476q0 -38 -17 -58q-18 -21 -59 -21t-59 21t-18 58v476q0 118 -13 204q-12 79 -41 125t-76 62t-122 16q-58 0 -114 -10q-50 -9 -101 -23 v-850q0 -37 -18 -58t-58 -21q-41 0 -59 21q-17 20 -17 58z" />
<glyph unicode="n" horiz-adv-x="1163" d="M174 61v881q0 62 51 78q62 20 156 37q87 16 192 16q138 0 217 -25t125 -89q45 -63 60 -165q14 -97 14 -257v-476q0 -38 -17 -58q-18 -21 -59 -21q-40 0 -58 21q-17 20 -17 58v476q0 118 -13 204q-12 78 -43 125q-30 45 -83 62q-51 16 -134 16q-63 0 -126 -10 q-62 -10 -113 -23v-850q0 -37 -18 -58t-58 -21q-41 0 -59 21q-17 20 -17 58z" />
<glyph unicode="o" horiz-adv-x="1136" d="M115 537q0 267 104 401q105 135 356 135q127 0 211 -34q88 -36 139 -101q51 -66 74 -168q23 -103 23 -233q0 -139 -24 -244q-24 -106 -77 -175q-54 -71 -142 -107q-87 -36 -216 -36t-215 36q-85 36 -138 107q-53 72 -74 175q-21 105 -21 244zM272 537q0 -66 9 -160 q8 -79 37 -139q30 -62 90 -99q59 -37 161 -37q103 0 162 37q58 36 89 98q29 59 37 138q7 73 7 162q0 73 -8 151q-7 73 -38 131q-31 59 -89 92q-61 35 -160 35q-101 0 -160 -35q-60 -36 -90 -92q-31 -58 -38 -131q-9 -88 -9 -151z" />
<glyph unicode="p" horiz-adv-x="1159" d="M174 -373v1317q0 62 51 78q68 21 166 36q99 15 215 15q126 0 209 -34q85 -35 135 -101q52 -69 73 -168q21 -100 21 -233q0 -281 -103 -421q-103 -141 -333 -141q-85 0 -164 14q-81 14 -118 27v-389q0 -37 -18 -58q-19 -22 -58 -22q-40 0 -59 22q-17 20 -17 58zM326 141 q35 -14 112 -27q72 -12 154 -12q103 0 162 37q58 36 89 98q29 59 37 138q7 73 7 162q0 73 -8 151q-7 71 -39 131q-30 57 -89 92t-159 35q-88 0 -155 -10t-111 -23v-772z" />
<glyph unicode="q" horiz-adv-x="1159" d="M115 537q0 269 109 402q110 134 351 134q103 0 200 -15q90 -14 159 -34q51 -16 51 -78v-1319q0 -38 -17 -58q-19 -22 -59 -22t-59 22t-19 58v391q-23 -7 -111 -26q-79 -17 -171 -17q-123 0 -207 36t-134 107q-52 74 -72 175q-21 105 -21 244zM272 537q0 -68 9 -162 q8 -79 37 -138q30 -60 89 -98q58 -37 160 -37q76 0 156 13q73 12 108 24v772q-45 12 -116 24q-63 11 -148 11q-97 0 -156 -35t-89 -93q-31 -61 -40 -132q-10 -82 -10 -149z" />
<glyph unicode="r" horiz-adv-x="739" d="M174 61v895q0 63 53 80q45 16 111 27q60 10 117 10q52 0 93 -4q46 -4 70 -12q48 -12 48 -64q0 -27 -16 -46q-14 -17 -44 -17q-18 0 -51 4t-66 4q-51 0 -94 -7q-51 -8 -69 -13v-857q0 -37 -18 -58t-58 -21q-41 0 -59 21q-17 20 -17 58z" />
<glyph unicode="s" horiz-adv-x="972" d="M117 80q0 59 59 59q15 0 42 -6l65 -13q46 -9 82 -14q45 -6 92 -6q138 0 193 41t55 125q0 47 -13 84q-12 35 -41 59q-26 22 -77 38t-117 26q-96 16 -153 35q-62 20 -102 55q-41 35 -59 87q-18 53 -18 130q0 75 28 133q28 57 76 92t119 52q67 16 156 16q102 0 171 -13 t113 -26q50 -12 50 -61q0 -29 -17 -44q-18 -16 -45 -16q-6 0 -42 6q-24 4 -64 12q-38 8 -79 12q-47 5 -83 5q-74 0 -115 -11q-43 -12 -71 -33q-26 -20 -37 -51t-11 -65q0 -43 12 -73q13 -33 38 -52q28 -22 71 -36q42 -14 113 -25q99 -17 161 -37q67 -21 108 -55 q43 -35 62 -90q19 -54 19 -137q0 -87 -25 -146q-24 -58 -76 -95q-49 -36 -124 -51q-78 -16 -170 -16q-99 0 -178 15q-93 17 -121 28q-47 17 -47 62z" />
<glyph unicode="t" horiz-adv-x="759" d="M174 260v977q0 38 17 58q19 22 59 22q39 0 58 -22q18 -21 18 -58v-188h262q34 0 48 -17q13 -16 13 -45t-13 -46t-48 -17h-262v-678q0 -35 7 -60q8 -28 25 -45q16 -16 50 -28q31 -11 77 -11q37 0 68 4q38 5 49 5q28 0 45 -18q17 -19 17 -46q0 -50 -50 -61q-18 -5 -60 -8 q-46 -3 -83 -3q-95 0 -153 18q-60 18 -90 53q-31 35 -43 89q-11 48 -11 125z" />
<glyph unicode="u" horiz-adv-x="1144" d="M168 512v475q0 39 17 59q18 21 59 21q40 0 58 -21q17 -20 17 -59v-475q0 -126 12 -205q12 -82 41 -125q30 -45 82 -61q54 -17 134 -17q56 0 125 11q70 11 112 22v850q0 38 18 59t58 21t58 -21t18 -59v-881q0 -60 -51 -77q-61 -20 -155 -37q-91 -17 -191 -17 q-133 0 -216 26q-81 25 -124 88q-43 62 -58 166q-14 97 -14 257z" />
<glyph unicode="v" horiz-adv-x="1040" d="M70 1004q0 63 82 63q34 0 54 -15q19 -15 30 -44l292 -887l285 887q21 59 80 59q78 0 78 -63q0 -19 -8 -41l-324 -910q-10 -29 -38 -51q-26 -20 -81 -20q-54 0 -81 21t-38 50l-323 910q-8 22 -8 41z" />
<glyph unicode="w" horiz-adv-x="1638" d="M82 1004q0 63 84 63q64 0 80 -55l237 -889l230 872q7 33 37 53q28 19 77 19q50 0 76 -19t37 -53l234 -872l233 889q12 55 72 55q35 0 56 -15t21 -48q0 -19 -8 -41l-266 -910q-10 -32 -38 -52q-26 -19 -79 -19q-51 0 -76 19q-26 20 -36 52l-238 875l-229 -875 q-7 -32 -35 -52q-26 -19 -78 -19q-50 0 -78 19q-29 20 -39 52l-266 910q-8 22 -8 41z" />
<glyph unicode="x" horiz-adv-x="1054" d="M82 31q0 28 27 65l321 457l-299 399q-27 38 -27 66q0 22 22 36q20 13 54 13q38 0 59 -18q18 -16 44 -50l258 -352l254 352q26 33 42 49q19 19 54 19q61 0 61 -49q0 -15 -8 -33q-7 -15 -20 -33l-299 -405l321 -451q27 -37 27 -65q0 -22 -22 -36q-20 -13 -54 -13 q-37 0 -61 18q-26 19 -48 49l-274 397l-266 -397q-22 -32 -45 -49q-24 -18 -58 -18q-29 0 -46 13t-17 36z" />
<glyph unicode="y" horiz-adv-x="1036" d="M70 1004q0 33 22 48q23 15 62 15q35 0 53 -15t29 -44l288 -852l289 852q21 59 80 59q74 0 74 -63q0 -7 -2 -21q-1 -6 -7 -20l-380 -1033q-44 -119 -79 -194q-36 -76 -73 -119q-36 -42 -81 -59t-101 -17q-40 0 -61 4q-22 4 -40 9q-47 11 -47 63q0 64 60 64q7 0 37 -6 q25 -5 38 -5q27 0 51 9q23 8 46 35q22 26 45 72q24 50 47 120l22 69l-364 988q-8 22 -8 41z" />
<glyph unicode="z" horiz-adv-x="942" d="M86 59q0 30 23 65q23 34 51 75l491 727h-485q-35 0 -48 16q-14 17 -14 45t14 45t48 17h592q43 0 62 -14q18 -13 18 -42q0 -28 -22 -66q-20 -35 -50 -77l-492 -727h523q35 0 47 -17q12 -16 12 -45t-12 -45t-47 -16h-631q-45 0 -63 15q-17 14 -17 44z" />
<glyph unicode="{" horiz-adv-x="741" d="M90 709q0 50 47 61q46 11 80 69q35 59 35 187v150q0 96 57 156q58 61 168 61h70q37 0 56 -19q18 -18 18 -47t-18 -47t-56 -18q-81 0 -109 -37t-28 -103v-159q0 -94 -40 -159q-41 -66 -134 -93q94 -27 134 -86t40 -158v-197q0 -65 28 -102t109 -37q38 0 56 -18t18 -47 q0 -30 -18 -48t-56 -18h-70q-111 0 -168 60t-57 157v189q0 64 -9 107t-25 72q-14 26 -37 42q-18 13 -44 20q-20 6 -34 21q-13 14 -13 41z" />
<glyph unicode="|" horiz-adv-x="567" d="M209 -375v1798q0 37 17 57q18 21 59 21t57 -21q16 -20 16 -57v-1798q0 -36 -17 -56q-19 -22 -58 -22q-41 0 -58 22q-16 20 -16 56z" />
<glyph unicode="}" horiz-adv-x="741" d="M123 66q0 30 16 47q17 18 56 18q79 0 109 37q30 38 30 102v197q0 99 40 158t134 86q-93 27 -134 93q-40 65 -40 159v159q0 66 -30 103t-109 37q-39 0 -56 18q-16 17 -16 47t16 47q17 19 56 19h71q110 0 168 -61t58 -156v-150q0 -131 33 -187q35 -59 79 -69q47 -11 47 -61 q0 -27 -13 -41q-14 -15 -34 -21q-24 -6 -43 -20q-21 -15 -36 -42q-15 -26 -24 -72q-9 -43 -9 -107v-189q0 -96 -58 -157q-57 -60 -168 -60h-71q-39 0 -56 18q-16 17 -16 48z" />
<glyph unicode="~" d="M135 440q0 40 16 82q14 37 43 69q25 28 66 47q37 17 86 17q61 0 115 -17q57 -18 111 -39q44 -17 106 -39q48 -17 98 -17q52 0 70 22q18 23 18 43q0 22 17 39t51 17q33 0 52 -17q17 -16 17 -39q0 -43 -15 -82q-14 -35 -43 -68q-25 -28 -66 -47q-39 -18 -86 -18 q-60 0 -117 18q-60 19 -113 39q-23 9 -106 38q-51 18 -99 18q-50 0 -68 -23t-18 -43q0 -23 -16 -39t-51 -16t-51 16q-17 17 -17 39z" />
<glyph unicode="&#xa1;" horiz-adv-x="600" d="M197 961q0 53 23 82q24 30 79 30q56 0 80 -30t24 -82q0 -50 -25 -79q-26 -30 -79 -30q-54 0 -78 30t-24 79zM217 -266q0 19 1 29t1 30v21l14 821q0 76 66 76t66 -76l14 -823v-20q0 -19 1 -29t1 -29v-23q0 -34 -20 -54q-19 -19 -62 -19q-41 0 -61 19q-21 19 -21 54v23z " />
<glyph unicode="&#xa2;" d="M174 711q0 229 85 359t265 163v104q0 35 17 55q16 19 57 19q40 0 58 -19q18 -20 18 -55v-92q44 -1 118 -10q57 -7 117 -23q54 -15 54 -63q0 -26 -15 -44t-53 -18q-30 0 -95 14q-61 13 -132 13q-111 0 -175 -34q-67 -36 -100 -90q-35 -57 -45 -129q-10 -69 -10 -150 q0 -84 9 -162t43 -137q35 -61 99 -96t179 -35q78 0 146 13t97 13q40 0 52 -16t12 -43q0 -54 -51 -66q-45 -13 -119 -23q-79 -11 -131 -12v-92q0 -35 -18 -54t-58 -19q-41 0 -57 19q-17 20 -17 54v101q-103 12 -170 54q-65 40 -107 112q-41 69 -57 166q-16 95 -16 223z" />
<glyph unicode="&#xa3;" d="M135 66q0 34 27 61q18 19 52 68q33 47 59 111q29 70 49 156q20 84 20 202h-133q-74 0 -74 63q0 64 74 64h133q0 181 19 298q19 119 66 193q47 75 122 104q79 31 186 31q61 0 117 -11q54 -11 90 -20q22 -6 37 -24q14 -17 14 -41q0 -25 -14 -42t-49 -17q-44 0 -84 11 t-94 11q-79 0 -127 -22q-50 -23 -77 -79q-28 -58 -38 -152q-10 -90 -10 -240h221q74 0 74 -64q0 -63 -74 -63h-221q0 -103 -23 -198q-22 -91 -53 -164q-28 -66 -63 -116q-31 -44 -50 -57h615q73 0 73 -63q0 -66 -73 -66h-715q-76 0 -76 66z" />
<glyph unicode="&#xa4;" d="M143 340q0 13 8 26q8 12 17 23l82 90q-35 51 -53 108q-19 62 -19 124t19 124q17 55 53 107l-82 90q-7 8 -17 24q-8 13 -8 25q0 26 29 49q28 27 55 27q23 0 47 -24l78 -86q92 69 215 69q61 0 113 -18q50 -17 98 -54l82 89q24 24 47 24q25 0 54 -27q28 -22 28 -49 q0 -23 -22 -49l-82 -90q36 -52 53 -107q18 -59 18 -124t-18 -124q-18 -57 -53 -108l82 -90q22 -26 22 -49q0 -29 -28 -51q-28 -25 -54 -25q-22 0 -47 25l-82 86q-46 -35 -98 -53q-55 -19 -113 -19q-57 0 -112 19q-54 19 -99 53l-82 -86q-25 -25 -47 -25q-27 0 -55 25 q-29 23 -29 51zM313 711q0 -60 21 -111q22 -54 54 -90q35 -40 80 -60q49 -22 99 -22t99 22q45 20 80 60q34 38 55 90q20 49 20 111q0 61 -20 110q-21 52 -55 90q-37 41 -80 61q-46 21 -99 21t-99 -21q-43 -20 -80 -61q-32 -36 -54 -90q-21 -51 -21 -110z" />
<glyph unicode="&#xa5;" d="M78 1366q0 22 20 33q21 12 56 12q37 0 55 -15q17 -14 39 -50l327 -558l324 558q23 37 38 50q18 15 50 15q31 0 50 -12q20 -12 20 -33q0 -32 -21 -66l-315 -509h182q76 0 76 -64q0 -63 -76 -63h-258v-607q0 -75 -78 -75q-80 0 -80 75v607h-258q-73 0 -73 63q0 64 73 64 h183l-314 509q-20 33 -20 66z" />
<glyph unicode="&#xa6;" horiz-adv-x="567" d="M209 145q0 37 17 57q18 21 59 21t57 -21q16 -20 16 -57v-520q0 -36 -17 -56q-19 -22 -58 -22q-41 0 -58 22q-16 20 -16 56v520zM209 903v520q0 37 17 57q18 21 59 21t57 -21q16 -20 16 -57v-520q0 -36 -17 -56q-19 -22 -58 -22q-41 0 -58 22q-16 20 -16 56z" />
<glyph unicode="&#xa7;" d="M168 76q0 26 15 43q15 16 44 16q14 0 44 -6q29 -6 71 -12q86 -13 88 -13q46 -6 96 -6q147 0 215 38t68 106q0 92 -71 131q-68 38 -212 59q-90 12 -156 30q-71 19 -111 47q-45 31 -65 76q-22 49 -22 115q0 88 50 141q48 51 124 79q-82 29 -124 80q-44 53 -44 151 q0 73 30 122q30 50 83 83q50 31 127 47q69 14 162 14q98 0 182 -12q78 -11 125 -25q47 -12 47 -57q0 -26 -15 -44q-14 -17 -45 -17q-12 0 -45 5q-9 1 -32 5t-38 6q-52 8 -85 11q-50 5 -86 5q-146 0 -203 -39t-57 -96q0 -78 59 -115q57 -36 201 -57q93 -15 163 -33 q64 -17 114 -49q46 -30 69 -79q22 -47 22 -119q0 -98 -35 -145q-36 -48 -112 -70q79 -30 117 -85q37 -53 37 -153q0 -80 -30 -133q-31 -55 -86 -85q-56 -31 -135 -46q-80 -15 -177 -15q-49 0 -99 3q-35 2 -92 10q-47 6 -77 13q-37 8 -52 13q-47 17 -47 62zM319 711 q0 -78 58 -113t180 -53q137 0 193 33q55 33 55 110q0 91 -64 131q-65 40 -188 58q-66 0 -113 -14q-44 -13 -71 -37q-26 -23 -38 -53t-12 -62z" />
<glyph unicode="&#xa8;" horiz-adv-x="499" d="M4 1346q0 46 21 73t67 27q47 0 68 -27q20 -26 20 -73q0 -51 -20 -78q-21 -29 -68 -29q-46 0 -67 29q-21 28 -21 78zM319 1346q0 46 21 73t68 27q46 0 67 -27t21 -73q0 -50 -21 -78q-21 -29 -67 -29q-47 0 -68 29q-21 28 -21 78z" />
<glyph unicode="&#xa9;" horiz-adv-x="1607" d="M119 696q0 147 47 279q46 128 136 229q88 98 217 156q127 57 290 57q162 0 288 -57t213 -156t132 -229t45 -279q0 -146 -47 -278q-46 -129 -136 -230q-86 -96 -218 -155q-130 -58 -289 -58q-160 0 -288 58q-127 58 -213 155q-87 99 -132 230q-45 130 -45 278zM190 696 q0 -135 42 -255q43 -122 121 -209q80 -89 193 -141t257 -52t257 52t193 141t122 209t42 255t-42 255t-122 209q-81 91 -193 142q-113 52 -257 52q-142 0 -255 -52t-194 -142q-80 -89 -122 -209t-42 -255zM436 709q0 205 88 314q89 110 289 110q48 0 115 -9q56 -8 80 -18 q43 -16 43 -59q0 -21 -13 -37q-12 -15 -47 -15q-21 0 -66 10q-41 9 -102 9q-78 0 -128 -25q-48 -24 -72 -66q-25 -43 -32 -98q-7 -52 -7 -116q0 -65 6 -124q6 -58 31 -103q24 -44 72 -69q49 -26 130 -26q70 0 113 11q46 12 68 12q34 0 46 -17q11 -15 11 -39q0 -42 -45 -57 q-43 -14 -102 -22q-50 -7 -119 -7q-107 0 -177 29q-69 28 -109 85q-40 56 -56 138q-17 85 -17 189z" />
<glyph unicode="&#xaa;" horiz-adv-x="706" d="M59 948q0 45 18 84q19 41 59 67q44 28 110 43q68 15 168 15h78v53q0 60 -34 84q-36 25 -118 25q-74 0 -117 -10q-47 -11 -63 -11q-51 0 -51 48q0 39 38 45q40 10 98 18q61 8 122 8q129 0 187 -45t58 -158v-366q0 -45 -43 -57q-35 -9 -106 -22q-62 -11 -135 -11 q-151 0 -210 47t-59 143zM74 588q0 47 55 47h453q53 0 53 -47t-53 -47h-453q-55 0 -55 47zM182 952q0 -21 5 -41q4 -16 21 -31q15 -13 46 -21q28 -7 80 -7q43 0 82 4q43 4 76 12v205h-76q-82 0 -126 -10q-48 -11 -71 -28q-25 -19 -31 -39q-6 -21 -6 -44z" />
<glyph unicode="&#xab;" horiz-adv-x="890" d="M68 702q0 28 24 58l201 258q17 22 36 36q19 13 54 13q23 0 32 -9t9 -22q0 -6 -8 -24l-203 -310l205 -321q8 -18 8 -25q0 -12 -10 -21t-33 -9q-35 0 -54 13t-36 36l-201 270q-24 30 -24 57zM403 702q0 27 25 58l201 258q17 22 36 36q19 13 54 13q23 0 32 -9t9 -22 q0 -6 -8 -24l-203 -310l205 -321q8 -18 8 -25q0 -12 -10 -21t-33 -9q-35 0 -54 13t-36 36l-201 270q-25 31 -25 57z" />
<glyph unicode="&#xac;" d="M106 692q0 29 20 51q20 21 60 21h744q41 0 59 -21q19 -22 19 -51v-354q0 -30 -18 -51t-56 -21q-40 0 -58 21t-18 51v283h-672q-41 0 -60 20q-20 22 -20 51z" />
<glyph unicode="&#xad;" horiz-adv-x="706" d="M88 635q0 34 17 52q18 20 59 20h379q40 0 58 -20q17 -18 17 -52t-17 -52q-18 -20 -58 -20h-379q-41 0 -59 20q-17 18 -17 52z" />
<glyph unicode="&#xae;" horiz-adv-x="768" d="M55 1071q0 70 24 133q26 68 66 111q46 49 105 75q62 27 139 27q75 0 137 -27q61 -27 103 -75q40 -45 63 -111q23 -64 23 -133q0 -71 -24 -134q-25 -67 -66 -110q-45 -48 -106 -74q-65 -28 -138 -28q-76 0 -138 28t-102 74t-63 110t-23 134zM109 1071q0 -63 19 -116 q20 -55 54 -95q33 -39 86 -64q51 -24 117 -24q63 0 116 24t87 64t54 95t20 116t-20 116t-54 95q-35 41 -87 65q-50 23 -116 23q-68 0 -117 -23q-51 -24 -86 -65q-34 -40 -54 -95q-19 -53 -19 -116zM236 899v354q0 33 40 33h121q63 0 100 -30q38 -30 38 -93q0 -45 -26 -73 q-25 -27 -60 -39l86 -138q4 -7 4 -16q0 -13 -11 -21t-26 -8q-28 0 -39 23l-88 147h-66v-139q0 -31 -37 -31q-36 0 -36 31zM309 1098h60q54 0 72 18t18 47q0 27 -16 45q-15 17 -56 17h-78v-127z" />
<glyph unicode="&#xaf;" horiz-adv-x="499" d="M-43 1343q0 58 70 58h446q70 0 70 -58q0 -59 -70 -59h-446q-70 0 -70 59z" />
<glyph unicode="&#xb0;" horiz-adv-x="819" d="M131 1128q0 58 20 112q20 53 56 92q38 41 89 63t118 22q66 0 116 -22q52 -23 86 -63q38 -44 54 -92q18 -52 18 -112t-19 -111t-57 -92t-89 -63t-117 -22q-67 0 -117 22q-52 23 -86 63q-36 42 -53 92q-19 55 -19 111zM229 1128q0 -80 49 -140q48 -58 132 -58t132 58 t48 140t-48 141q-48 58 -132 58t-132 -58q-49 -60 -49 -141z" />
<glyph unicode="&#xb1;" d="M106 68q0 65 76 65h768q76 0 76 -65q0 -33 -17 -50q-18 -18 -59 -18h-768q-40 0 -58 18t-18 50zM106 641q0 66 76 66h310v284q0 36 17 56t58 20q42 0 58 -20t16 -56v-284h309q76 0 76 -66q0 -32 -17 -49q-19 -19 -59 -19h-309v-284q0 -35 -15 -56q-14 -20 -57 -20 q-42 0 -59 20q-18 21 -18 56v284h-310q-39 0 -58 19q-18 18 -18 49z" />
<glyph unicode="&#xb2;" horiz-adv-x="833" d="M111 713q0 23 10 36t26 23q90 65 156 118q73 58 129 117q57 60 87 117q32 61 32 121q0 34 -7 59q-8 28 -26 49t-53 33q-37 13 -90 13q-52 0 -100 -9q-53 -10 -78 -10q-56 0 -56 45q0 19 15 31q17 13 30 17q34 10 92 18q61 8 111 8q86 0 140 -17q58 -18 91 -51 q32 -32 48 -81q14 -43 14 -105q0 -70 -35 -140q-34 -68 -90 -130t-122 -116q-57 -46 -130 -97h348q62 0 62 -49t-62 -49h-483q-59 0 -59 49z" />
<glyph unicode="&#xb3;" horiz-adv-x="849" d="M98 723q0 45 54 45q34 0 86 -12q57 -13 131 -13q61 0 105 14q43 14 67 38q23 23 34 56t11 69q0 77 -43 119t-135 42q-18 0 -38 -3t-34 -3q-24 0 -41 9q-16 9 -16 32q0 25 38 64l199 206h-323q-62 0 -62 50q0 47 62 47h440q61 0 61 -47q0 -18 -11 -32q-16 -20 -28 -32 l-204 -205q136 -5 199 -62q65 -59 65 -185q0 -130 -79 -202q-81 -73 -257 -73q-70 0 -133 10q-66 11 -105 21q-16 4 -29 16q-14 12 -14 31z" />
<glyph unicode="&#xb4;" horiz-adv-x="499" d="M162 1210q0 24 16 47l121 197q10 18 35 33q22 14 72 14q53 0 53 -35q0 -19 -17 -41l-153 -204q-11 -15 -35 -28q-21 -11 -55 -11q-37 0 -37 28z" />
<glyph unicode="&#xb5;" d="M156 -373v1360q0 39 17 59q18 21 58 21q41 0 59 -21q17 -20 17 -59v-844q34 -14 116 -27q75 -12 159 -12q57 0 129 11q75 11 116 22v850q0 38 18 59t58 21q41 0 59 -21q17 -20 17 -59v-881q0 -60 -51 -77q-69 -24 -153 -38q-93 -16 -181 -16q-89 0 -168 14 q-83 15 -119 27v-389q0 -38 -17 -58q-19 -22 -59 -22q-39 0 -58 22q-17 20 -17 58z" />
<glyph unicode="&#xb6;" horiz-adv-x="1492" d="M94 1059q0 95 42 159q41 63 112 103q68 38 156 55q90 17 180 17h647q45 0 64 -21q20 -22 20 -53v-1700q0 -29 -19 -51q-18 -21 -59 -21q-43 0 -62 21q-20 22 -20 51v1641h-504v-1641q0 -31 -19 -51q-20 -21 -61 -21q-43 0 -61 21t-18 51v1098q-76 2 -146 25 q-72 24 -127 67q-56 44 -90 106q-35 64 -35 144z" />
<glyph unicode="&#xb7;" horiz-adv-x="567" d="M180 639q0 48 25 78q24 28 78 28q53 0 78 -28q26 -29 26 -78q0 -52 -25 -83q-24 -30 -79 -30t-79 30t-24 83z" />
<glyph unicode="&#xb8;" horiz-adv-x="499" d="M-25 -385q0 19 13 34q12 13 37 13q24 0 70 -13q50 -14 118 -14t102 28q33 27 33 61q0 35 -19 60q-20 26 -81 26q-35 0 -70 -11q-31 -10 -67 -10q-29 0 -29 18q0 16 14 43l68 127q10 18 30 30q18 11 54 11q57 0 57 -28q0 -11 -4 -18t-14 -21l-60 -86q11 5 45 12q37 8 70 8 q72 0 113 -47t41 -110q0 -76 -60 -131q-61 -56 -198 -56q-19 0 -61 2q-32 2 -62 6q-12 2 -32.5 5.5t-25.5 4.5q-24 4 -43 11q-39 10 -39 45z" />
<glyph unicode="&#xb9;" horiz-adv-x="849" d="M186 1309q0 21 13 36q10 11 30 23l191 102q20 12 36 17q18 6 40 6q55 0 55 -47v-682h129q61 0 61 -51q0 -49 -61 -49h-401q-62 0 -62 49q0 51 62 51h141v592l-152 -82q-17 -10 -39 -10q-43 0 -43 45z" />
<glyph unicode="&#xba;" horiz-adv-x="727" d="M57 1094q0 158 71 241q70 82 241 82q168 0 234 -83q67 -84 67 -240q0 -164 -69 -250t-241 -86q-86 0 -144 21q-57 21 -94 65q-35 42 -50 105t-15 145zM78 588q0 47 55 47h463q53 0 53 -47t-53 -47h-463q-55 0 -55 47zM182 1094q0 -44 5 -92q4 -39 24 -76q19 -34 55 -53 q37 -19 99 -19t97 19q36 19 54 53q20 37 24 76q5 48 5 92q0 41 -5 86q-4 37 -24 72q-19 34 -54 51q-36 18 -97 18q-62 0 -98 -18q-34 -17 -55 -51q-21 -33 -25 -72q-5 -45 -5 -86z" />
<glyph unicode="&#xbb;" horiz-adv-x="890" d="M129 356q0 7 8 25l203 321l-201 310q-8 18 -8 24q0 13 9 22t32 9q35 0 54 -13q20 -14 36 -36l201 -258q24 -30 24 -58q0 -27 -24 -57l-201 -270q-16 -23 -36 -36q-19 -13 -54 -13q-22 0 -33 9q-10 9 -10 21zM463 356q0 7 3 13q4 8 7 12l203 321l-201 310q-3 4 -7 12 q-3 6 -3 12q0 13 9 22t32 9q35 0 55 -13t37 -36l199 -258q24 -30 24 -58q0 -29 -22 -57l-201 -270q-17 -23 -37 -36t-55 -13q-22 0 -33 9q-10 9 -10 21z" />
<glyph unicode="&#xbc;" horiz-adv-x="2267" d="M352 1208q0 21 13 36q12 14 30 24l191 102q16 9 36 16q21 7 40 7q55 0 55 -50v-679h129q61 0 61 -52q0 -49 -61 -49h-402q-61 0 -61 49q0 52 61 52h142v589l-152 -79q-19 -11 -39 -11q-43 0 -43 45zM780 16q0 17 13 43l575 1274q17 36 41 57t61 21q48 0 48 -37 q0 -19 -11 -41l-577 -1274q-17 -35 -42 -56q-26 -21 -63 -21q-45 0 -45 34zM1202 240q0 30 31 61q34 35 83 97q48 61 90 124q45 69 81 133q33 59 57 123q7 21 24 38q15 15 48 15q51 0 51 -53q0 -27 -32 -91q-28 -56 -79 -135q-43 -67 -101 -144q-54 -72 -99 -117h346v151 q0 54 61 54q60 0 60 -54v-401q0 -53 -60 -53q-61 0 -61 53v152h-436q-64 0 -64 47z" />
<glyph unicode="&#xbd;" horiz-adv-x="2267" d="M303 1208q0 24 11 36q12 14 30 24l191 102q17 10 35 16q21 7 40 7q56 0 56 -50v-679h129q63 0 63 -52q0 -49 -63 -49h-402q-61 0 -61 49q0 52 61 52h142v589l-152 -79q-19 -11 -39 -11q-41 0 -41 45zM723 16q0 23 10 43l578 1274q18 38 40 57q24 21 60 21q47 0 47 -37 q0 -21 -10 -41l-578 -1274q-17 -35 -41 -56t-61 -21q-45 0 -45 34zM1309 49q0 24 11 36q13 14 28 24q93 67 155 117q73 58 129 117t87 118q32 61 32 121q0 33 -7 58q-8 28 -27 49q-21 22 -54 34q-35 12 -90 12q-51 0 -99 -9t-79 -9q-54 0 -54 45q0 19 14 31q13 12 29 16 q33 10 93 18q68 9 112 9q85 0 140 -18q56 -18 89 -51q32 -32 48 -81q14 -43 14 -104q0 -71 -35 -141q-34 -68 -90 -130q-52 -58 -122 -115q-65 -53 -130 -98h348q64 0 64 -49t-64 -49h-481q-61 0 -61 49z" />
<glyph unicode="&#xbe;" horiz-adv-x="2267" d="M264 633q0 45 55 45q35 0 87 -12q57 -13 131 -13q61 0 105 14q43 14 67 38t33 56q10 35 10 68q0 78 -43 120t-136 42q-18 0 -36 -3t-33 -3q-25 0 -41 9q-17 9 -17 32q0 24 39 64l197 206h-322q-63 0 -63 50q0 47 63 47h439q63 0 63 -47q0 -17 -12 -32t-29 -32l-205 -205 q137 -5 200 -62q65 -59 65 -186q0 -129 -78 -201q-79 -73 -256 -73q-70 0 -133 10q-66 11 -105 21q-15 4 -30 16t-15 31zM805 16q0 23 10 43l578 1274q18 38 40 57q24 21 60 21q47 0 47 -37q0 -21 -10 -41l-578 -1274q-17 -35 -41 -56t-61 -21q-45 0 -45 34zM1290 240 q0 30 31 61q34 35 83 97q48 61 90 124q45 69 81 133q33 59 57 123q7 21 24 38q15 15 48 15q51 0 51 -53q0 -27 -32 -91q-31 -63 -78 -135q-37 -58 -102 -144q-54 -72 -99 -117h346v151q0 54 61 54q60 0 60 -54v-401q0 -53 -60 -53q-61 0 -61 53v152h-436q-64 0 -64 47z" />
<glyph unicode="&#xbf;" horiz-adv-x="866" d="M102 -29q0 78 23 139t57 110q33 47 77 96q39 43 79 96q37 49 64 106q29 61 36 131q6 62 70 62q34 0 46 -17q11 -15 11 -45q0 -114 -47 -200q-49 -90 -103 -161q-60 -79 -104 -150q-47 -76 -47 -167q0 -47 10 -83q11 -39 37 -65q28 -28 74 -43q50 -16 123 -16q68 0 124 14 q52 13 89 13q63 0 63 -61q0 -27 -15 -42q-16 -16 -38 -22q-34 -9 -109 -23q-64 -12 -137 -12q-111 0 -186 23t-118 66q-42 42 -61 108q-18 63 -18 143zM401 961q0 51 25 82q24 30 80 30q55 0 79 -30q23 -29 23 -82q0 -49 -24 -79t-78 -30t-79 30q-26 31 -26 79z" />
<glyph unicode="&#xc0;" horiz-adv-x="1294" d="M68 43q0 6 2 22q1 10 6 21l452 1253q11 30 38 51t83 21q57 0 83 -20q27 -21 38 -52l451 -1251q4 -15 4 -17q2 -16 2 -20q0 -34 -23 -52q-21 -17 -57 -17q-57 0 -80 63l-115 332h-620l-115 -338q-18 -57 -76 -57q-35 0 -54 15t-19 46zM375 508h534l-266 766zM442 1810 q0 35 54 35q49 0 71 -14q25 -15 35 -33l121 -196q16 -23 16 -48q0 -28 -37 -28q-35 0 -54 11q-23 13 -34 28l-155 204q-11 19 -12 22q-5 13 -5 19z" />
<glyph unicode="&#xc1;" horiz-adv-x="1294" d="M68 43q0 6 2 22q1 10 6 21l452 1253q11 30 38 51t83 21q57 0 83 -20q27 -21 38 -52l451 -1251q4 -15 4 -17q2 -16 2 -20q0 -34 -23 -52q-21 -17 -57 -17q-57 0 -80 63l-115 332h-620l-115 -338q-18 -57 -76 -57q-35 0 -54 15t-19 46zM375 508h534l-266 766zM559 1554 q0 25 16 48l121 196q10 18 35 33q22 14 72 14q53 0 53 -35q0 -21 -16 -41l-154 -204q-11 -15 -35 -28q-21 -11 -55 -11q-37 0 -37 28z" />
<glyph unicode="&#xc2;" horiz-adv-x="1294" d="M68 43q0 6 2 22q1 10 6 21l452 1253q11 30 38 51t83 21q57 0 83 -20q27 -21 38 -52l451 -1251q4 -15 4 -17q2 -16 2 -20q0 -34 -23 -52q-21 -17 -57 -17q-57 0 -80 63l-115 332h-620l-115 -338q-18 -57 -76 -57q-35 0 -54 15t-19 46zM375 508h534l-266 766zM379 1554 q0 20 24 50l156 204q13 15 31 25q21 12 59 12q39 0 62 -12q19 -10 32 -25l156 -204q23 -29 23 -50q0 -28 -39 -28q-37 0 -54 11t-32 28l-152 168l-149 -168q-14 -15 -33 -28q-17 -11 -49 -11q-35 0 -35 28z" />
<glyph unicode="&#xc3;" horiz-adv-x="1294" d="M68 43q0 6 2 22q1 10 6 21l452 1253q11 30 38 51t83 21q57 0 83 -20q27 -21 38 -52l451 -1251q4 -15 4 -17q2 -16 2 -20q0 -34 -23 -52q-21 -17 -57 -17q-57 0 -80 63l-115 332h-620l-115 -338q-18 -57 -76 -57q-35 0 -54 15t-19 46zM328 1610q0 39 11 71q13 37 34 64 q22 28 59 46q35 17 86 17q43 0 79 -18t69 -42q36 -26 61 -42q29 -18 53 -18q48 0 66 27t18 46q0 20 14 34q13 13 39 13q27 0 40 -13q14 -14 14 -34q0 -37 -12 -71q-14 -40 -33 -64q-22 -28 -60 -46q-35 -17 -86 -17q-42 0 -80 18q-35 17 -68 42q-27 20 -61 42q-29 18 -53 18 q-47 0 -65 -27q-19 -28 -19 -46q0 -20 -12 -34q-12 -13 -39 -13t-41 13t-14 34zM375 508h534l-266 766z" />
<glyph unicode="&#xc4;" horiz-adv-x="1294" d="M68 43q0 6 2 22q1 10 6 21l452 1253q11 30 38 51t83 21q57 0 83 -20q27 -21 38 -52l451 -1251q4 -15 4 -17q2 -16 2 -20q0 -34 -23 -52q-21 -17 -57 -17q-57 0 -80 63l-115 332h-620l-115 -338q-18 -57 -76 -57q-35 0 -54 15t-19 46zM375 508h534l-266 766zM403 1690 q0 46 21 73t68 27q46 0 67 -27t21 -73q0 -50 -21 -78q-21 -29 -67 -29q-47 0 -68 29q-21 28 -21 78zM719 1690q0 47 20 73q21 27 68 27q46 0 67 -27t21 -73q0 -50 -21 -78q-21 -29 -67 -29q-47 0 -68 29q-20 27 -20 78z" />
<glyph unicode="&#xc5;" horiz-adv-x="1294" d="M68 43q0 6 2 22q1 10 6 21l452 1253q11 30 38 51t83 21q57 0 83 -20q27 -21 38 -52l451 -1251q4 -15 4 -17q2 -16 2 -20q0 -34 -23 -52q-21 -17 -57 -17q-57 0 -80 63l-115 332h-620l-115 -338q-18 -57 -76 -57q-35 0 -54 15t-19 46zM375 508h534l-266 766zM463 1692 q0 71 47 116q46 45 139 45q91 0 138 -45t47 -116q0 -77 -47 -126q-47 -48 -142 -48t-139 48q-43 47 -43 126zM545 1692q0 -46 24 -73q25 -28 78 -28t78 28t25 73q0 40 -26 64q-25 24 -77 24q-51 0 -77 -24q-25 -24 -25 -64z" />
<glyph unicode="&#xc6;" horiz-adv-x="1937" d="M68 43q0 6 2 22q1 10 6 21l446 1239q23 68 111 68h700q82 0 82 -68q0 -70 -82 -70h-532l170 -477h542q45 0 62 -16q18 -17 18 -49q0 -33 -18 -49q-19 -17 -62 -17h-493l184 -510h584q82 0 82 -67q0 -70 -82 -70h-629q-48 0 -68 17q-22 19 -32 46l-107 314h-620l-115 -338 q-18 -57 -76 -57q-35 0 -54 15t-19 46zM375 508h534l-266 766z" />
<glyph unicode="&#xc7;" horiz-adv-x="1136" d="M131 711q0 349 129 528q129 178 422 178q96 0 162 -12q63 -12 119 -29q20 -7 36 -24q15 -16 15 -45t-15 -47q-16 -19 -49 -19q-46 0 -104 17q-62 18 -152 18q-132 0 -212 -48q-76 -46 -118 -128q-40 -78 -52 -181q-11 -93 -11 -208q0 -121 10 -222q11 -109 50 -189 q41 -83 119 -132q79 -49 214 -49q102 0 161 17q63 18 110 18q33 0 49 -19q14 -17 14 -47q0 -29 -14 -46q-15 -18 -37 -24q-60 -18 -129 -30q-75 -13 -162 -13l-80 -110q10 5 45 12q37 8 70 8q72 0 113 -47q40 -46 40 -110q0 -76 -59 -131q-61 -56 -199 -56q-18 0 -60 2 q-32 2 -62 6q-12 2 -32 5.5t-26 4.5q-24 4 -43 11q-39 10 -39 45q0 19 13 34q12 13 36 13q25 0 70 -13q48 -14 117 -14q68 0 102 28q33 27 33 61t-18 60t-80 26q-35 0 -71 -11q-33 -10 -69 -10q-26 0 -26 18q0 16 14 43l68 132q-124 15 -202 68t-126 147q-47 92 -65 220 q-19 135 -19 294z" />
<glyph unicode="&#xc8;" horiz-adv-x="1153" d="M197 84v1225q0 42 20 62q22 22 68 22h641q82 0 82 -68q0 -70 -82 -70h-568v-477h531q82 0 82 -65q0 -66 -82 -66h-531v-510h592q82 0 82 -67q0 -70 -82 -70h-665q-46 0 -68 22q-20 20 -20 62zM397 1810q0 35 54 35q49 0 71 -14q25 -15 35 -33l121 -196q16 -23 16 -48 q0 -28 -37 -28q-35 0 -54 11q-23 13 -34 28l-155 204q-11 19 -12 22q-5 13 -5 19z" />
<glyph unicode="&#xc9;" horiz-adv-x="1153" d="M197 84v1225q0 42 20 62q22 22 68 22h641q82 0 82 -68q0 -70 -82 -70h-568v-477h531q82 0 82 -65q0 -66 -82 -66h-531v-510h592q82 0 82 -67q0 -70 -82 -70h-665q-46 0 -68 22q-20 20 -20 62zM516 1554q0 25 16 48l121 196q10 18 35 33q22 14 72 14q53 0 53 -35 q0 -21 -16 -41l-154 -204q-11 -15 -35 -28q-21 -11 -55 -11q-37 0 -37 28z" />
<glyph unicode="&#xca;" horiz-adv-x="1153" d="M197 84v1225q0 42 20 62q22 22 68 22h641q82 0 82 -68q0 -70 -82 -70h-568v-477h531q82 0 82 -65q0 -66 -82 -66h-531v-510h592q82 0 82 -67q0 -70 -82 -70h-665q-46 0 -68 22q-20 20 -20 62zM336 1554q0 20 24 50l156 204q13 15 31 25q21 12 59 12q40 0 62 -12 q19 -10 32 -25l156 -204q23 -29 23 -50q0 -28 -39 -28q-38 0 -54 11q-17 11 -32 28l-152 168l-149 -168q-14 -15 -33 -28q-16 -11 -49 -11q-35 0 -35 28z" />
<glyph unicode="&#xcb;" horiz-adv-x="1153" d="M197 84v1225q0 42 20 62q22 22 68 22h641q82 0 82 -68q0 -70 -82 -70h-568v-477h531q82 0 82 -65q0 -66 -82 -66h-531v-510h592q82 0 82 -67q0 -70 -82 -70h-665q-46 0 -68 22q-20 20 -20 62zM358 1690q0 46 21 73t67 27q47 0 68 -27t21 -73q0 -50 -21 -78 q-21 -29 -68 -29q-46 0 -67 29q-21 28 -21 78zM674 1690q0 47 20 73q21 27 68 27q46 0 67 -27t21 -73q0 -50 -21 -78q-21 -29 -67 -29q-47 0 -68 29q-20 27 -20 78z" />
<glyph unicode="&#xcc;" horiz-adv-x="557" d="M70 1810q0 35 53 35q50 0 72 -14q23 -15 34 -33l121 -196q17 -25 17 -48q0 -28 -37 -28q-36 0 -55 11q-22 12 -33 28l-156 204q-8 14 -11 22q-5 13 -5 19zM197 59v1274q0 37 19 57q20 21 63 21t61 -21t18 -57v-1274q0 -35 -18 -56t-61 -21t-63 21q-19 20 -19 56z" />
<glyph unicode="&#xcd;" horiz-adv-x="557" d="M190 1554q0 23 17 48l121 196q11 18 34 33q22 14 72 14q53 0 53 -35q0 -21 -16 -41l-154 -204q-12 -16 -34 -28q-21 -11 -56 -11q-37 0 -37 28zM197 59v1274q0 37 19 57q20 21 63 21t61 -21t18 -57v-1274q0 -35 -18 -56t-61 -21t-63 21q-19 20 -19 56z" />
<glyph unicode="&#xce;" horiz-adv-x="557" d="M8 1554q0 19 25 50l155 204q13 15 31 25q21 12 60 12t61 -12q21 -11 33 -25l155 -204q23 -29 23 -50q0 -28 -39 -28q-36 0 -53 11q-19 13 -33 28l-152 168l-149 -168q-14 -15 -33 -28q-17 -11 -49 -11q-35 0 -35 28zM197 59v1274q0 37 19 57q20 21 63 21t61 -21t18 -57 v-1274q0 -35 -18 -56t-61 -21t-63 21q-19 20 -19 56z" />
<glyph unicode="&#xcf;" horiz-adv-x="557" d="M33 1690q0 47 20 73q21 27 68 27q46 0 67 -27t21 -73q0 -50 -21 -78q-21 -29 -67 -29q-47 0 -68 29q-20 27 -20 78zM197 59v1274q0 37 19 57q20 21 63 21t61 -21t18 -57v-1274q0 -35 -18 -56t-61 -21t-63 21q-19 20 -19 56zM348 1690q0 46 21 73t67 27q47 0 68 -27 q20 -26 20 -73q0 -51 -20 -78q-21 -29 -68 -29q-46 0 -67 29q-21 28 -21 78z" />
<glyph unicode="&#xd0;" horiz-adv-x="1357" d="M-2 727q0 29 18 47q19 19 58 19h123v516q0 42 20 62q22 22 68 22h288q204 0 333 -44q128 -44 199 -131t96 -214q26 -130 26 -293q0 -181 -31 -319q-30 -133 -107 -221q-76 -87 -208 -129q-131 -42 -330 -42h-266q-46 0 -68 22q-20 20 -20 62v578h-123q-76 0 -76 65z M358 135h179q164 0 266 33q103 33 159 103q55 68 75 180q20 111 20 260q0 124 -16 233q-15 104 -67 172q-54 71 -151 106q-96 35 -264 35h-201v-464h213q39 0 58 -19q18 -18 18 -47q0 -65 -76 -65h-213v-527z" />
<glyph unicode="&#xd1;" horiz-adv-x="1413" d="M197 59v1270q0 82 127 82q69 0 100 -26t47 -60l598 -1165v1173q0 37 16 57q17 21 58 21t57 -21q17 -22 17 -57v-1270q0 -81 -127 -81q-72 0 -101 25q-30 26 -47 61l-598 1165v-1174q0 -36 -16 -56q-16 -21 -58 -21q-40 0 -57 21q-16 20 -16 56zM385 1610q0 39 11 71 q13 37 34 64q22 28 59 46q35 17 86 17q43 0 79 -18t69 -42q36 -26 61 -42q28 -18 54 -18q47 0 65 27q19 29 19 46q0 21 13 34t40 13t40 -13t13 -34q0 -39 -11 -71q-13 -37 -34 -64q-22 -28 -59 -46q-35 -17 -86 -17q-42 0 -80 18t-69 42t-60 42t-54 18q-47 0 -65 -27 t-18 -46t-13 -34q-12 -13 -39 -13t-41 13t-14 34z" />
<glyph unicode="&#xd2;" horiz-adv-x="1378" d="M131 711q0 173 30 307q30 132 96 221q65 88 174 133q108 45 263 45q156 0 262 -45q107 -45 171 -133q67 -92 93 -221q27 -134 27 -307q0 -185 -28 -321q-28 -138 -95 -230q-66 -92 -174 -138q-109 -47 -268 -47q-157 0 -265 48q-105 47 -169 139q-63 91 -90 229 q-27 137 -27 320zM301 711q0 -120 10 -223q10 -107 48 -191t116 -134q79 -50 213 -50t213 50q78 49 117 134q38 83 49 191q10 103 10 223q0 117 -11 211q-13 106 -51 182q-41 80 -117 128t-210 48t-210 -48t-117 -128q-39 -77 -50 -182q-10 -97 -10 -211zM487 1810 q0 35 54 35q49 0 71 -14q25 -15 35 -33l121 -196q16 -23 16 -48q0 -28 -36 -28t-55 11q-23 13 -34 28l-155 204q-8 14 -11 22q-6 16 -6 19z" />
<glyph unicode="&#xd3;" horiz-adv-x="1378" d="M131 711q0 173 30 307q30 132 96 221q65 88 174 133q108 45 263 45q156 0 262 -45q107 -45 171 -133q67 -92 93 -221q27 -134 27 -307q0 -185 -28 -321q-28 -138 -95 -230q-66 -92 -174 -138q-109 -47 -268 -47q-157 0 -265 48q-105 47 -169 139q-63 91 -90 229 q-27 137 -27 320zM301 711q0 -120 10 -223q10 -107 48 -191t116 -134q79 -50 213 -50t213 50q78 49 117 134q38 83 49 191q10 103 10 223q0 117 -11 211q-13 106 -51 182q-41 80 -117 128t-210 48t-210 -48t-117 -128q-39 -77 -50 -182q-10 -97 -10 -211zM606 1554 q0 23 17 48l120 196q10 18 35 33q22 14 72 14q53 0 53 -35q0 -21 -16 -41l-154 -204q-11 -15 -35 -28q-21 -11 -55 -11q-37 0 -37 28z" />
<glyph unicode="&#xd4;" horiz-adv-x="1378" d="M131 711q0 173 30 307q30 132 96 221q65 88 174 133q108 45 263 45q156 0 262 -45q107 -45 171 -133q67 -92 93 -221q27 -134 27 -307q0 -185 -28 -321q-28 -138 -95 -230q-66 -92 -174 -138q-109 -47 -268 -47q-157 0 -265 48q-105 47 -169 139q-63 91 -90 229 q-27 137 -27 320zM301 711q0 -120 10 -223q10 -107 48 -191t116 -134q79 -50 213 -50t213 50q78 49 117 134q38 83 49 191q10 103 10 223q0 117 -11 211q-13 106 -51 182q-41 80 -117 128t-210 48t-210 -48t-117 -128q-39 -77 -50 -182q-10 -97 -10 -211zM424 1554 q0 19 25 50l155 204q13 15 31 25q21 12 59 12q40 0 62 -12q19 -10 32 -25l156 -204q23 -29 23 -50q0 -28 -39 -28q-38 0 -54 11q-17 11 -32 28l-152 168l-149 -168q-14 -15 -33 -28q-17 -11 -49 -11q-35 0 -35 28z" />
<glyph unicode="&#xd5;" horiz-adv-x="1378" d="M131 711q0 173 30 307q30 132 96 221q65 88 174 133q108 45 263 45q156 0 262 -45q107 -45 171 -133q67 -92 93 -221q27 -134 27 -307q0 -185 -28 -321q-28 -138 -95 -230q-66 -92 -174 -138q-109 -47 -268 -47q-157 0 -265 48q-105 47 -169 139q-63 91 -90 229 q-27 137 -27 320zM301 711q0 -120 10 -223q10 -107 48 -191t116 -134q79 -50 213 -50t213 50q78 49 117 134q38 83 49 191q10 103 10 223q0 117 -11 211q-13 106 -51 182q-41 80 -117 128t-210 48t-210 -48t-117 -128q-39 -77 -50 -182q-10 -97 -10 -211zM373 1610 q0 39 11 71q13 37 34 64q22 28 59 46q35 17 86 17q43 0 79 -18t69 -42q36 -26 61 -42q28 -18 53 -18q48 0 66 27t18 46q0 20 14 34q13 13 40 13q26 0 39 -13q14 -14 14 -34q0 -39 -11 -71q-13 -37 -34 -64q-22 -28 -60 -46q-35 -17 -86 -17q-43 0 -80 18q-35 17 -68 42 q-27 20 -61 42q-28 18 -53 18q-47 0 -65 -27q-19 -28 -19 -46q0 -20 -12 -34q-12 -13 -39 -13t-41 13t-14 34z" />
<glyph unicode="&#xd6;" horiz-adv-x="1378" d="M131 711q0 173 30 307q30 132 96 221q65 88 174 133q108 45 263 45q156 0 262 -45q107 -45 171 -133q67 -92 93 -221q27 -134 27 -307q0 -185 -28 -321q-28 -138 -95 -230q-66 -92 -174 -138q-109 -47 -268 -47q-157 0 -265 48q-105 47 -169 139q-63 91 -90 229 q-27 137 -27 320zM301 711q0 -120 10 -223q10 -107 48 -191t116 -134q79 -50 213 -50t213 50q78 49 117 134q38 83 49 191q10 103 10 223q0 117 -11 211q-13 106 -51 182q-41 80 -117 128t-210 48t-210 -48t-117 -128q-39 -77 -50 -182q-10 -97 -10 -211zM449 1690 q0 47 20 73q21 27 68 27q46 0 67 -27t21 -73q0 -50 -21 -78q-21 -29 -67 -29q-47 0 -68 29q-20 27 -20 78zM764 1690q0 47 20 73q21 27 68 27t68 -27q20 -26 20 -73q0 -51 -20 -78q-21 -29 -68 -29t-68 29q-20 27 -20 78z" />
<glyph unicode="&#xd7;" d="M123 31q0 15 9 32q6 11 22 33l323 428l-325 428q-16 22 -21 33q-8 18 -8 33q0 22 21 36q20 13 53 13q35 0 58 -19q20 -17 46 -49l266 -356l271 356q24 31 48 49q25 19 60 19q64 0 64 -49q0 -28 -27 -66l-326 -428l326 -428q27 -33 27 -65q0 -23 -18 -36q-17 -13 -50 -13 q-34 0 -60 18q-24 17 -48 49l-267 357l-268 -357q-23 -29 -48 -48t-61 -19q-35 0 -51 13t-16 36z" />
<glyph unicode="&#xd8;" horiz-adv-x="1378" d="M78 20q0 35 26 62l111 135q-44 90 -64 215q-20 126 -20 279q0 173 30 307q30 132 96 221q65 88 174 133q108 45 263 45q135 0 232 -35q94 -34 161 -104l66 80q18 22 43 38q24 15 53 15q54 0 54 -39q0 -13 -10 -31q-7 -13 -19 -30l-109 -135q43 -85 63 -202 q19 -113 19 -263q0 -185 -28 -321q-28 -138 -95 -230q-66 -92 -174 -138q-109 -47 -268 -47q-266 0 -391 142l-68 -82q-19 -24 -42 -38q-24 -15 -52 -15q-51 0 -51 38zM301 711q0 -86 5 -184q4 -83 30 -165l651 791q-39 57 -115 93q-72 34 -184 34q-134 0 -210 -48 t-117 -128q-39 -77 -50 -182q-10 -97 -10 -211zM391 240q39 -58 114 -94q69 -33 183 -33q134 0 213 50q78 49 117 134q38 83 49 191q10 103 10 223q0 76 -5 168q-4 75 -30 153z" />
<glyph unicode="&#xd9;" horiz-adv-x="1355" d="M184 500v833q0 35 20 57q19 21 62 21q44 0 62 -21t18 -57v-833q0 -91 15 -160q15 -67 54 -119q37 -49 102 -75q63 -25 161 -25t160 25q64 26 101 75q38 50 53 119q16 74 16 160v833q0 36 18 57t61 21t63 -21q19 -20 19 -57v-833q0 -123 -22 -218q-23 -98 -79 -165 q-57 -67 -153 -105q-95 -37 -243 -37q-149 0 -242 37q-94 37 -148 105q-55 69 -76 165q-22 102 -22 218zM469 1810q0 35 53 35q50 0 72 -14q25 -15 35 -33l121 -196q16 -23 16 -48q0 -28 -37 -28q-35 0 -54 11q-23 13 -34 28l-156 204q-8 14 -11 22q-5 13 -5 19z" />
<glyph unicode="&#xda;" horiz-adv-x="1355" d="M184 500v833q0 35 20 57q19 21 62 21q44 0 62 -21t18 -57v-833q0 -91 15 -160q15 -67 54 -119q37 -49 102 -75q63 -25 161 -25t160 25q64 26 101 75q38 50 53 119q16 74 16 160v833q0 36 18 57t61 21t63 -21q19 -20 19 -57v-833q0 -123 -22 -218q-23 -98 -79 -165 q-57 -67 -153 -105q-95 -37 -243 -37q-149 0 -242 37q-94 37 -148 105q-55 69 -76 165q-22 102 -22 218zM590 1554q0 25 16 48l121 196q10 18 35 33q22 14 72 14q53 0 53 -35q0 -19 -17 -41l-153 -204q-11 -15 -35 -28q-21 -11 -55 -11q-37 0 -37 28z" />
<glyph unicode="&#xdb;" horiz-adv-x="1355" d="M184 500v833q0 35 20 57q19 21 62 21q44 0 62 -21t18 -57v-833q0 -91 15 -160q15 -67 54 -119q37 -49 102 -75q63 -25 161 -25t160 25q64 26 101 75q38 50 53 119q16 74 16 160v833q0 36 18 57t61 21t63 -21q19 -20 19 -57v-833q0 -123 -22 -218q-23 -98 -79 -165 q-57 -67 -153 -105q-95 -37 -243 -37q-149 0 -242 37q-94 37 -148 105q-55 69 -76 165q-22 102 -22 218zM408 1554q0 20 24 50l156 204q14 16 30 25q21 12 60 12q38 0 61 -12q21 -11 33 -25l156 -204q22 -28 22 -50q0 -28 -39 -28q-37 0 -53 11q-19 13 -33 28l-151 168 l-150 -168q-15 -17 -32 -28q-16 -11 -50 -11t-34 28z" />
<glyph unicode="&#xdc;" horiz-adv-x="1355" d="M184 500v833q0 35 20 57q19 21 62 21q44 0 62 -21t18 -57v-833q0 -91 15 -160q15 -67 54 -119q37 -49 102 -75q63 -25 161 -25t160 25q64 26 101 75q38 50 53 119q16 74 16 160v833q0 36 18 57t61 21t63 -21q19 -20 19 -57v-833q0 -123 -22 -218q-23 -98 -79 -165 q-57 -67 -153 -105q-95 -37 -243 -37q-149 0 -242 37q-94 37 -148 105q-55 69 -76 165q-22 102 -22 218zM432 1690q0 46 21 73t67 27q47 0 68 -27q20 -26 20 -73q0 -51 -20 -78q-21 -29 -68 -29q-46 0 -67 29q-21 28 -21 78zM748 1690q0 47 20 73q21 27 68 27q46 0 67 -27 t21 -73q0 -50 -21 -78q-21 -29 -67 -29q-47 0 -68 29q-20 27 -20 78z" />
<glyph unicode="&#xdd;" horiz-adv-x="1216" d="M80 1362q0 23 22 36t58 13q39 0 59 -16t39 -52l358 -630l355 630q19 36 39 52t55 16q31 0 51 -13q21 -14 21 -36q0 -26 -23 -66l-426 -733v-504q0 -35 -18 -56t-62 -21q-42 0 -62 21q-20 22 -20 56v504l-426 733q-20 33 -20 66zM520 1554q0 23 17 48l120 196q10 18 35 33 q22 14 72 14q53 0 53 -35q0 -21 -16 -41l-154 -204q-11 -15 -35 -28q-21 -11 -55 -11q-37 0 -37 28z" />
<glyph unicode="&#xde;" horiz-adv-x="1222" d="M197 59v1274q0 37 19 57q20 21 63 21t61 -21t18 -57v-211h334q193 0 303 -98q111 -99 111 -313t-121 -317t-326 -103h-301v-232q0 -35 -18 -56t-61 -21t-63 21q-19 20 -19 56zM358 428h271q309 0 309 283q0 132 -66 204t-221 72h-293v-559z" />
<glyph unicode="&#xdf;" horiz-adv-x="1193" d="M174 61v1076q0 70 20 139q20 68 66 119q48 52 129 82q83 30 205 30t200 -25q77 -25 124 -67q44 -39 62 -93q17 -50 17 -105q0 -86 -44 -148q-43 -60 -158 -121q-71 -39 -104 -80q-34 -43 -34 -102q0 -65 37 -106q38 -42 129 -60q152 -30 218 -99q67 -70 67 -216 q0 -83 -22 -146q-20 -58 -63 -96q-42 -37 -101 -52q-64 -16 -136 -16q-56 0 -124 10q-65 9 -107 25q-22 7 -35 22q-12 14 -12 38q0 25 12 40t47 15q15 0 35 -4q22 -5 51 -9q6 -1 27.5 -4.5t33.5 -5.5q28 -4 62 -4q104 0 144 43q41 44 41 127q0 93 -41 143t-140 68 q-80 16 -124 35q-52 22 -83 53t-47 78q-14 42 -14 107q0 56 13 95q14 41 40 73t66 61q43 31 90 59q57 34 90 72t33 96q0 38 -11 67q-13 33 -40 56q-30 26 -78 40q-49 15 -127 15q-144 0 -204 -64t-60 -171v-1090q0 -36 -17 -58q-17 -21 -57 -21q-41 0 -59 21q-17 20 -17 58z " />
<glyph unicode="&#xe0;" horiz-adv-x="1085" d="M104 285q0 69 25 133q23 60 86 107q61 46 163 73t255 27h133v108q0 117 -55 165t-191 48q-110 0 -180 -16q-74 -17 -100 -17q-60 0 -60 60q0 47 47 59q64 17 148 29q86 12 184 12q188 0 274 -75q85 -75 85 -257v-635q0 -60 -52 -77q-63 -19 -160 -36q-102 -18 -204 -18 q-113 0 -191 20q-75 19 -122 57q-45 36 -65 96t-20 137zM256 289q0 -47 10 -81q11 -37 39 -61q29 -24 78 -36q54 -13 129 -13q65 0 134 12q85 15 120 23v385h-129q-124 0 -199 -19q-72 -18 -115 -52q-41 -31 -54 -72q-13 -39 -13 -86zM350 1466q0 35 53 35q50 0 72 -14 q25 -15 35 -33l121 -197q16 -23 16 -47q0 -28 -37 -28q-35 0 -54 11q-23 13 -34 28l-155 204q-11 19 -12 22q-5 13 -5 19z" />
<glyph unicode="&#xe1;" horiz-adv-x="1085" d="M104 285q0 69 25 133q23 60 86 107q61 46 163 73t255 27h133v108q0 117 -55 165t-191 48q-110 0 -180 -16q-74 -17 -100 -17q-60 0 -60 60q0 47 47 59q64 17 148 29q86 12 184 12q188 0 274 -75q85 -75 85 -257v-635q0 -60 -52 -77q-63 -19 -160 -36q-102 -18 -204 -18 q-113 0 -191 20q-75 19 -122 57q-45 36 -65 96t-20 137zM256 289q0 -47 10 -81q11 -37 39 -61q29 -24 78 -36q54 -13 129 -13q65 0 134 12q85 15 120 23v385h-129q-124 0 -199 -19q-72 -18 -115 -52q-41 -31 -54 -72q-13 -39 -13 -86zM471 1210q0 24 16 47l121 197 q10 18 35 33q22 14 72 14q53 0 53 -35q0 -21 -16 -41l-154 -204q-11 -15 -35 -28q-21 -11 -55 -11q-37 0 -37 28z" />
<glyph unicode="&#xe2;" horiz-adv-x="1085" d="M104 285q0 69 25 133q23 60 86 107q61 46 163 73t255 27h133v108q0 117 -55 165t-191 48q-110 0 -180 -16q-74 -17 -100 -17q-60 0 -60 60q0 47 47 59q64 17 148 29q86 12 184 12q188 0 274 -75q85 -75 85 -257v-635q0 -60 -52 -77q-63 -19 -160 -36q-102 -18 -204 -18 q-113 0 -191 20q-75 19 -122 57q-45 36 -65 96t-20 137zM256 289q0 -47 10 -81q11 -37 39 -61q29 -24 78 -36q54 -13 129 -13q65 0 134 12q85 15 120 23v385h-129q-124 0 -199 -19q-72 -18 -115 -52q-41 -31 -54 -72q-13 -39 -13 -86zM289 1210q0 20 24 50l156 204 q13 15 31 25q21 12 59 12q39 0 62 -12q19 -10 32 -25l156 -204q22 -28 22 -50q0 -28 -38 -28q-37 0 -54 11t-32 28l-152 168l-149 -168q-14 -15 -33 -28q-17 -11 -49 -11q-35 0 -35 28z" />
<glyph unicode="&#xe3;" horiz-adv-x="1085" d="M104 285q0 69 25 133q23 60 86 107q61 46 163 73t255 27h133v108q0 117 -55 165t-191 48q-110 0 -180 -16q-74 -17 -100 -17q-60 0 -60 60q0 47 47 59q64 17 148 29q86 12 184 12q188 0 274 -75q85 -75 85 -257v-635q0 -60 -52 -77q-63 -19 -160 -36q-102 -18 -204 -18 q-113 0 -191 20q-75 19 -122 57q-45 36 -65 96t-20 137zM238 1266q0 39 11 71q13 37 34 64q22 28 59 46q35 17 86 17q43 0 79 -18q33 -16 68 -42q30 -22 62 -42q30 -19 53 -19q47 0 66 28q18 27 18 46q0 21 13 34t40 13t40 -13q14 -14 14 -34q0 -37 -12 -71q-14 -40 -33 -64 q-22 -28 -60 -46q-35 -17 -86 -17q-42 0 -80 18q-35 17 -68 42q-27 20 -61 42q-29 18 -53 18q-48 0 -66 -27t-18 -46q0 -20 -12 -34q-12 -13 -39 -13t-41 13t-14 34zM256 289q0 -47 10 -81q11 -37 39 -61q29 -24 78 -36q54 -13 129 -13q65 0 134 12q85 15 120 23v385h-129 q-124 0 -199 -19q-72 -18 -115 -52q-41 -31 -54 -72q-13 -39 -13 -86z" />
<glyph unicode="&#xe4;" horiz-adv-x="1085" d="M104 285q0 69 25 133q23 60 86 107q61 46 163 73t255 27h133v108q0 117 -55 165t-191 48q-110 0 -180 -16q-74 -17 -100 -17q-60 0 -60 60q0 47 47 59q64 17 148 29q86 12 184 12q188 0 274 -75q85 -75 85 -257v-635q0 -60 -52 -77q-63 -19 -160 -36q-102 -18 -204 -18 q-113 0 -191 20q-75 19 -122 57q-45 36 -65 96t-20 137zM256 289q0 -47 10 -81q11 -37 39 -61q29 -24 78 -36q54 -13 129 -13q65 0 134 12q85 15 120 23v385h-129q-124 0 -199 -19q-72 -18 -115 -52q-41 -31 -54 -72q-13 -39 -13 -86zM313 1346q0 46 21 73t67 27 q47 0 68 -27q20 -26 20 -73q0 -51 -20 -78q-21 -29 -68 -29q-46 0 -67 29q-21 28 -21 78zM629 1346q0 47 20 73q21 27 68 27q46 0 67 -27t21 -73q0 -50 -21 -78q-21 -29 -67 -29q-47 0 -68 29q-20 27 -20 78z" />
<glyph unicode="&#xe5;" horiz-adv-x="1085" d="M104 285q0 69 25 133q23 60 86 107q61 46 163 73t255 27h133v108q0 117 -55 165t-191 48q-110 0 -180 -16q-74 -17 -100 -17q-60 0 -60 60q0 47 47 59q64 17 148 29q86 12 184 12q188 0 274 -75q85 -75 85 -257v-635q0 -60 -52 -77q-63 -19 -160 -36q-102 -18 -204 -18 q-113 0 -191 20q-75 19 -122 57q-45 36 -65 96t-20 137zM256 289q0 -47 10 -81q11 -37 39 -61q29 -24 78 -36q54 -13 129 -13q65 0 134 12q85 15 120 23v385h-129q-124 0 -199 -19q-72 -18 -115 -52q-41 -31 -54 -72q-13 -39 -13 -86zM375 1348q0 71 47 116t139 45 q91 0 138 -45q46 -45 46 -116q0 -79 -46 -126q-47 -48 -142 -48t-139 48q-43 47 -43 126zM457 1348q0 -46 24 -73q25 -28 78 -28t78 28t25 73q0 40 -26 64t-77 24t-77 -24q-25 -24 -25 -64z" />
<glyph unicode="&#xe6;" horiz-adv-x="1714" d="M104 285q0 65 25 127q23 58 86 104t163 71t255 25h133v121q0 117 -55 165t-191 48q-108 0 -180 -15q-77 -16 -100 -16q-60 0 -60 58q0 47 47 59q64 17 148 29q86 12 184 12q122 0 195 -37t110 -114q47 69 130 110q84 41 198 41q224 0 318 -123q96 -125 96 -364 q0 -38 -18 -59t-58 -21l-615 -2q0 -73 10 -153q9 -73 42 -128t93 -87q61 -32 163 -32q100 0 176 17q71 16 102 16q30 0 44 -17q16 -19 16 -46q0 -50 -48 -62q-54 -15 -148 -26q-93 -11 -194 -11q-79 0 -146 19q-61 17 -105 51q-13 -3 -71 -20q-48 -14 -93 -23 q-50 -10 -110 -18q-70 -9 -118 -9q-121 0 -206 20q-83 20 -131 57q-47 37 -67 96q-20 60 -20 137zM256 289q0 -47 10 -81q11 -37 39 -61q29 -24 78 -36q54 -13 129 -13q94 0 193 13q95 12 131 32q-37 66 -54 152q-16 83 -16 209h-129q-118 0 -199 -19q-74 -17 -115 -48 q-41 -30 -54 -68t-13 -80zM915 612h543q-1 61 -11 127q-9 61 -37 109q-27 47 -81 76q-52 28 -143 28q-93 0 -144 -29q-52 -30 -81 -78q-30 -50 -37 -110q-9 -74 -9 -123z" />
<glyph unicode="&#xe7;" horiz-adv-x="948" d="M115 537q0 269 106 402q107 134 342 134q50 0 117 -8q60 -7 117 -25q23 -6 36 -21q13 -14 13 -40q0 -27 -13 -43t-49 -16q-33 0 -88 13t-123 13q-100 0 -161 -35q-60 -34 -90 -92q-31 -59 -40 -131q-10 -82 -10 -151q0 -68 9 -162q8 -79 37 -138q30 -61 91 -97 q60 -36 164 -36q32 0 70 5q46 6 66 9q30 4 54 9q21 4 36 4q35 0 47 -15t12 -42q0 -49 -47 -64t-116 -23q-74 -9 -124 -10l-84 -112q10 4 47 12q38 8 70 8q72 0 113 -47t41 -110q0 -76 -60 -131q-61 -56 -198 -56q-19 0 -61 2q-32 2 -62 6q-12 2 -32.5 5.5t-25.5 4.5 q-24 4 -43 11q-38 10 -38 45q0 21 12 34t37 13q24 0 69 -13q48 -14 117 -14q68 0 102 28q33 27 33 61q0 35 -19 60q-20 26 -81 26q-35 0 -70 -11q-31 -10 -67 -10q-27 0 -27 18q0 16 14 43l70 134q-96 16 -153 57q-60 44 -96 112q-35 67 -50 164q-14 90 -14 220z" />
<glyph unicode="&#xe8;" horiz-adv-x="1067" d="M115 537q0 269 99 402q99 134 331 134q223 0 318 -125t95 -368q0 -39 -17 -59q-18 -21 -58 -21h-615q0 -75 11 -150q11 -72 42 -126t92 -87q60 -33 162 -33q101 0 177 17q71 16 102 16q30 0 44 -17q15 -18 15 -46q0 -50 -47 -62q-54 -15 -146 -26q-91 -11 -194 -11 q-122 0 -201 36t-126 107q-49 74 -66 175q-18 105 -18 244zM268 608h545q-1 63 -11 129q-9 61 -38 110q-28 48 -82 77q-52 28 -143 28t-143 -28q-53 -29 -80 -77t-36 -111q-11 -76 -12 -128zM338 1466q0 35 53 35q50 0 72 -14q25 -15 35 -33l120 -197q17 -25 17 -47 q0 -28 -37 -28q-35 0 -54 11q-23 13 -34 28l-156 204q-8 14 -11 22q-5 13 -5 19z" />
<glyph unicode="&#xe9;" horiz-adv-x="1067" d="M115 537q0 269 99 402q99 134 331 134q223 0 318 -125t95 -368q0 -39 -17 -59q-18 -21 -58 -21h-615q0 -75 11 -150q11 -72 42 -126t92 -87q60 -33 162 -33q101 0 177 17q71 16 102 16q30 0 44 -17q15 -18 15 -46q0 -50 -47 -62q-54 -15 -146 -26q-91 -11 -194 -11 q-122 0 -201 36t-126 107q-49 74 -66 175q-18 105 -18 244zM268 608h545q-1 63 -11 129q-9 61 -38 110q-28 48 -82 77q-52 28 -143 28t-143 -28q-53 -29 -80 -77t-36 -111q-11 -76 -12 -128zM457 1210q0 24 16 47l121 197q10 18 35 33q22 14 71 14q54 0 54 -35 q0 -19 -17 -41l-153 -204q-11 -15 -35 -28q-21 -11 -55 -11q-37 0 -37 28z" />
<glyph unicode="&#xea;" horiz-adv-x="1067" d="M115 537q0 269 99 402q99 134 331 134q223 0 318 -125t95 -368q0 -39 -17 -59q-18 -21 -58 -21h-615q0 -75 11 -150q11 -72 42 -126t92 -87q60 -33 162 -33q101 0 177 17q71 16 102 16q30 0 44 -17q15 -18 15 -46q0 -50 -47 -62q-54 -15 -146 -26q-91 -11 -194 -11 q-122 0 -201 36t-126 107q-49 74 -66 175q-18 105 -18 244zM268 608h545q-1 63 -11 129q-9 61 -38 110q-28 48 -82 77q-52 28 -143 28t-143 -28q-53 -29 -80 -77t-36 -111q-11 -76 -12 -128zM276 1210q0 19 25 50l156 204q14 16 30 25q21 12 60 12t61 -12q21 -11 33 -25 l156 -204q22 -28 22 -50q0 -28 -39 -28q-36 0 -53 11q-19 13 -33 28l-151 168l-150 -168q-14 -15 -33 -28q-16 -11 -49 -11q-35 0 -35 28z" />
<glyph unicode="&#xeb;" horiz-adv-x="1067" d="M115 537q0 269 99 402q99 134 331 134q223 0 318 -125t95 -368q0 -39 -17 -59q-18 -21 -58 -21h-615q0 -75 11 -150q11 -72 42 -126t92 -87q60 -33 162 -33q101 0 177 17q71 16 102 16q30 0 44 -17q15 -18 15 -46q0 -50 -47 -62q-54 -15 -146 -26q-91 -11 -194 -11 q-122 0 -201 36t-126 107q-49 74 -66 175q-18 105 -18 244zM268 608h545q-1 63 -11 129q-9 61 -38 110q-28 48 -82 77q-52 28 -143 28t-143 -28q-53 -29 -80 -77t-36 -111q-11 -76 -12 -128zM299 1346q0 47 20 73q21 27 68 27t68 -27q20 -26 20 -73q0 -51 -20 -78 q-21 -29 -68 -29t-68 29q-20 27 -20 78zM614 1346q0 46 21 73t67 27q47 0 68 -27t21 -73q0 -50 -21 -78q-21 -29 -68 -29q-46 0 -67 29q-21 28 -21 78z" />
<glyph unicode="&#xec;" horiz-adv-x="499" d="M41 1466q0 35 53 35q50 0 72 -14q25 -15 35 -33l121 -197q16 -23 16 -47q0 -28 -37 -28q-35 0 -54 11q-23 13 -34 28l-156 204q-8 14 -11 22q-5 13 -5 19zM174 61v926q0 39 17 59q18 21 59 21q40 0 58 -21t18 -59v-926q0 -37 -18 -58t-58 -21q-41 0 -59 21q-17 20 -17 58 z" />
<glyph unicode="&#xed;" horiz-adv-x="499" d="M162 1210q0 24 16 47l121 197q10 18 35 33q22 14 72 14q53 0 53 -35q0 -19 -17 -41l-153 -204q-11 -15 -35 -28q-21 -11 -55 -11q-37 0 -37 28zM174 61v926q0 39 17 59q18 21 59 21q40 0 58 -21t18 -59v-926q0 -37 -18 -58t-58 -21q-41 0 -59 21q-17 20 -17 58z" />
<glyph unicode="&#xee;" horiz-adv-x="499" d="M-20 1210q0 20 24 50l156 204q14 16 30 25q21 12 60 12q38 0 61 -12q21 -11 33 -25l156 -204q22 -28 22 -50q0 -28 -39 -28q-37 0 -53 11q-19 13 -33 28l-151 168l-150 -168q-14 -15 -33 -28q-17 -11 -49 -11q-34 0 -34 28zM174 61v926q0 39 17 59q18 21 59 21 q40 0 58 -21t18 -59v-926q0 -37 -18 -58t-58 -21q-41 0 -59 21q-17 20 -17 58z" />
<glyph unicode="&#xef;" horiz-adv-x="499" d="M4 1346q0 46 21 73t67 27q47 0 68 -27q20 -26 20 -73q0 -51 -20 -78q-21 -29 -68 -29q-46 0 -67 29q-21 28 -21 78zM174 61v926q0 39 17 59q18 21 59 21q40 0 58 -21t18 -59v-926q0 -37 -18 -58t-58 -21q-41 0 -59 21q-17 20 -17 58zM319 1346q0 46 21 73t68 27 q46 0 67 -27t21 -73q0 -50 -21 -78q-21 -29 -67 -29q-47 0 -68 29q-21 28 -21 78z" />
<glyph unicode="&#xf0;" horiz-adv-x="1136" d="M115 537q0 267 104 401q105 135 356 135q63 0 115 -15q48 -14 92 -34q-16 32 -39 68q-22 34 -54 71q-41 47 -58 65q-26 28 -53 46l-164 -84q-22 -10 -33 -13q-22 -6 -31 -6q-33 0 -33 27q0 33 50 57l137 70q-12 12 -31 23q-17 10 -45 22q-32 14 -48 19q-29 9 -38 10 q-30 5 -47 19q-19 16 -19 42q0 23 18 32t44 9q38 0 77 -11q44 -13 82 -28q36 -15 76 -37q34 -19 64 -39l170 89q22 10 34 13q20 5 29 5q14 0 22 -7q9 -8 9 -22q0 -33 -47 -57l-147 -74q54 -42 111 -113q58 -71 102 -169q44 -96 73 -227q29 -130 29 -287q0 -139 -24 -244 q-24 -106 -77 -175q-54 -71 -142 -107q-87 -36 -216 -36t-215 36q-85 36 -138 107q-53 72 -74 175q-21 105 -21 244zM272 537q0 -66 9 -160q8 -79 37 -139q30 -62 90 -99q59 -37 161 -37q103 0 162 37q58 36 89 98q29 59 37 138q7 73 7 162q0 73 -8 151q-7 73 -38 131 q-31 59 -89 92q-61 35 -160 35q-101 0 -160 -35q-60 -36 -90 -92q-31 -58 -38 -131q-9 -88 -9 -151z" />
<glyph unicode="&#xf1;" horiz-adv-x="1163" d="M174 61v881q0 62 51 78q62 20 156 37q87 16 192 16q138 0 217 -25t125 -89q45 -63 60 -165q14 -97 14 -257v-476q0 -38 -17 -58q-18 -21 -59 -21q-40 0 -58 21q-17 20 -17 58v476q0 118 -13 204q-12 78 -43 125q-30 45 -83 62q-51 16 -134 16q-63 0 -126 -10 q-62 -10 -113 -23v-850q0 -37 -18 -58t-58 -21q-41 0 -59 21q-17 20 -17 58zM260 1266q0 39 11 71q13 37 34 64q22 28 60 46q35 17 86 17q42 0 78 -18t69 -42q36 -26 61 -42q30 -19 54 -19q46 0 65 28q19 29 19 46q0 21 13 34t40 13t40 -13t13 -34q0 -39 -11 -71 q-13 -37 -34 -64q-22 -28 -59 -46q-35 -17 -86 -17q-43 0 -80 18t-69 42t-60 42q-29 18 -53 18q-48 0 -66 -27t-18 -46t-13 -34q-12 -13 -39 -13t-41 13t-14 34z" />
<glyph unicode="&#xf2;" horiz-adv-x="1136" d="M115 537q0 267 104 401q105 135 356 135q127 0 211 -34q88 -36 139 -101q51 -66 74 -168q23 -103 23 -233q0 -139 -24 -244q-24 -106 -77 -175q-54 -71 -142 -107q-87 -36 -216 -36t-215 36q-85 36 -138 107q-53 72 -74 175q-21 105 -21 244zM272 537q0 -66 9 -160 q8 -79 37 -139q30 -62 90 -99q59 -37 161 -37q103 0 162 37q58 36 89 98q29 59 37 138q7 73 7 162q0 73 -8 151q-7 73 -38 131q-31 59 -89 92q-61 35 -160 35q-101 0 -160 -35q-60 -36 -90 -92q-31 -58 -38 -131q-9 -88 -9 -151zM365 1466q0 35 53 35q49 0 71 -14 q25 -15 35 -33l121 -197q17 -25 17 -47q0 -28 -37 -28q-36 0 -55 11q-22 12 -33 28l-156 204q-8 14 -11 22q-5 13 -5 19z" />
<glyph unicode="&#xf3;" horiz-adv-x="1136" d="M115 537q0 267 104 401q105 135 356 135q127 0 211 -34q88 -36 139 -101q51 -66 74 -168q23 -103 23 -233q0 -139 -24 -244q-24 -106 -77 -175q-54 -71 -142 -107q-87 -36 -216 -36t-215 36q-85 36 -138 107q-53 72 -74 175q-21 105 -21 244zM272 537q0 -66 9 -160 q8 -79 37 -139q30 -62 90 -99q59 -37 161 -37q103 0 162 37q58 36 89 98q29 59 37 138q7 73 7 162q0 73 -8 151q-7 73 -38 131q-31 59 -89 92q-61 35 -160 35q-101 0 -160 -35q-60 -36 -90 -92q-31 -58 -38 -131q-9 -88 -9 -151zM485 1210q0 22 17 47l121 197q11 18 34 33 q22 14 72 14q53 0 53 -35q0 -21 -16 -41l-154 -204q-12 -16 -34 -28q-21 -11 -56 -11q-37 0 -37 28z" />
<glyph unicode="&#xf4;" horiz-adv-x="1136" d="M115 537q0 267 104 401q105 135 356 135q127 0 211 -34q88 -36 139 -101q51 -66 74 -168q23 -103 23 -233q0 -139 -24 -244q-24 -106 -77 -175q-54 -71 -142 -107q-87 -36 -216 -36t-215 36q-85 36 -138 107q-53 72 -74 175q-21 105 -21 244zM272 537q0 -66 9 -160 q8 -79 37 -139q30 -62 90 -99q59 -37 161 -37q103 0 162 37q58 36 89 98q29 59 37 138q7 73 7 162q0 73 -8 151q-7 73 -38 131q-31 59 -89 92q-61 35 -160 35q-101 0 -160 -35q-60 -36 -90 -92q-31 -58 -38 -131q-9 -88 -9 -151zM305 1210q0 19 25 50l155 204q13 15 31 25 q21 12 59 12q39 0 62 -12q21 -11 33 -25l155 -204q23 -29 23 -50q0 -28 -39 -28q-37 0 -53 11q-19 13 -33 28l-152 168l-149 -168q-14 -15 -33 -28q-17 -11 -49 -11q-35 0 -35 28z" />
<glyph unicode="&#xf5;" horiz-adv-x="1136" d="M115 537q0 267 104 401q105 135 356 135q127 0 211 -34q88 -36 139 -101q51 -66 74 -168q23 -103 23 -233q0 -139 -24 -244q-24 -106 -77 -175q-54 -71 -142 -107q-87 -36 -216 -36t-215 36q-85 36 -138 107q-53 72 -74 175q-21 105 -21 244zM252 1266q0 39 11 71 q13 37 34 64q22 28 59 46q35 17 86 17q43 0 79 -18t69 -42q36 -26 61 -42q30 -19 54 -19q46 0 65 28q18 27 18 46q0 20 14 34q13 13 40 13t40 -13t13 -34q0 -39 -11 -71q-13 -37 -34 -64q-22 -28 -59 -46q-35 -17 -86 -17q-43 0 -80 18t-69 42t-60 42t-54 18q-47 0 -65 -27 q-19 -28 -19 -46q0 -20 -12 -34q-12 -13 -39 -13t-41 13t-14 34zM272 537q0 -66 9 -160q8 -79 37 -139q30 -62 90 -99q59 -37 161 -37q103 0 162 37q58 36 89 98q29 59 37 138q7 73 7 162q0 73 -8 151q-7 73 -38 131q-31 59 -89 92q-61 35 -160 35q-101 0 -160 -35 q-60 -36 -90 -92q-31 -58 -38 -131q-9 -88 -9 -151z" />
<glyph unicode="&#xf6;" horiz-adv-x="1136" d="M115 537q0 267 104 401q105 135 356 135q127 0 211 -34q88 -36 139 -101q51 -66 74 -168q23 -103 23 -233q0 -139 -24 -244q-24 -106 -77 -175q-54 -71 -142 -107q-87 -36 -216 -36t-215 36q-85 36 -138 107q-53 72 -74 175q-21 105 -21 244zM272 537q0 -66 9 -160 q8 -79 37 -139q30 -62 90 -99q59 -37 161 -37q103 0 162 37q58 36 89 98q29 59 37 138q7 73 7 162q0 73 -8 151q-7 73 -38 131q-31 59 -89 92q-61 35 -160 35q-101 0 -160 -35q-60 -36 -90 -92q-31 -58 -38 -131q-9 -88 -9 -151zM328 1346q0 47 20 73q21 27 68 27 q46 0 67 -27t21 -73q0 -50 -21 -78q-21 -29 -67 -29q-47 0 -68 29q-20 27 -20 78zM643 1346q0 46 21 73t67 27q47 0 68 -27q20 -26 20 -73q0 -51 -20 -78q-21 -29 -68 -29q-46 0 -67 29q-21 28 -21 78z" />
<glyph unicode="&#xf7;" d="M106 524q0 28 18 48t56 20h774q39 0 56 -20q16 -19 16 -48t-16 -48t-56 -19h-774q-38 0 -56 19q-18 20 -18 48zM463 213q0 48 24 75t78 27q53 0 79 -27q26 -28 26 -75q0 -50 -25 -80q-24 -29 -80 -29q-55 0 -79 29q-23 27 -23 80zM463 842q0 47 24 74q25 28 78 28t79 -28 t26 -74q0 -50 -25 -80q-24 -29 -80 -29q-55 0 -79 29q-23 27 -23 80z" />
<glyph unicode="&#xf8;" horiz-adv-x="1136" d="M80 16q0 29 26 58l76 88q-37 67 -52 163q-15 93 -15 212q0 267 104 401q105 135 356 135q213 0 314 -100l37 45q15 18 36 35q18 14 48 14q47 0 47 -35q0 -27 -27 -57l-74 -86q37 -70 51 -154q15 -89 15 -198q0 -139 -24 -244q-24 -106 -77 -175q-54 -71 -142 -107 q-87 -36 -216 -36q-104 0 -182 26q-76 25 -129 77l-41 -47q-15 -20 -37 -35q-20 -14 -47 -14q-47 0 -47 34zM272 537q0 -73 4 -130q5 -66 21 -118l494 573q-33 39 -86 62q-51 22 -136 22q-101 0 -160 -35t-89 -92q-32 -60 -39 -131q-9 -88 -9 -151zM348 188q33 -40 86 -63 q54 -23 135 -23q103 0 162 37q58 36 89 98q29 59 37 138q7 73 7 162q0 65 -4 117q-5 63 -20 106z" />
<glyph unicode="&#xf9;" horiz-adv-x="1144" d="M168 512v475q0 39 17 59q18 21 59 21q40 0 58 -21q17 -20 17 -59v-475q0 -126 12 -205q12 -82 41 -125q30 -45 82 -61q54 -17 134 -17q56 0 125 11q70 11 112 22v850q0 38 18 59t58 21t58 -21t18 -59v-881q0 -60 -51 -77q-61 -20 -155 -37q-91 -17 -191 -17 q-133 0 -216 26q-81 25 -124 88q-43 62 -58 166q-14 97 -14 257zM362 1466q0 35 54 35q49 0 71 -14q25 -15 35 -33l121 -197q16 -23 16 -47q0 -28 -36 -28t-55 11q-22 12 -33 28l-156 204q-8 14 -11 22q-6 16 -6 19z" />
<glyph unicode="&#xfa;" horiz-adv-x="1144" d="M168 512v475q0 39 17 59q18 21 59 21q40 0 58 -21q17 -20 17 -59v-475q0 -126 12 -205q12 -82 41 -125q30 -45 82 -61q54 -17 134 -17q56 0 125 11q70 11 112 22v850q0 38 18 59t58 21t58 -21t18 -59v-881q0 -60 -51 -77q-61 -20 -155 -37q-91 -17 -191 -17 q-133 0 -216 26q-81 25 -124 88q-43 62 -58 166q-14 97 -14 257zM485 1210q0 22 17 47l121 197q11 18 34 33q22 14 72 14q53 0 53 -35q0 -21 -16 -41l-154 -204q-12 -16 -34 -28q-21 -11 -56 -11q-37 0 -37 28z" />
<glyph unicode="&#xfb;" horiz-adv-x="1144" d="M168 512v475q0 39 17 59q18 21 59 21q40 0 58 -21q17 -20 17 -59v-475q0 -126 12 -205q12 -82 41 -125q30 -45 82 -61q54 -17 134 -17q56 0 125 11q70 11 112 22v850q0 38 18 59t58 21t58 -21t18 -59v-881q0 -60 -51 -77q-61 -20 -155 -37q-91 -17 -191 -17 q-133 0 -216 26q-81 25 -124 88q-43 62 -58 166q-14 97 -14 257zM303 1210q0 19 25 50l155 204q13 15 31 25q21 12 59 12q39 0 62 -12q21 -11 33 -25l155 -204q23 -29 23 -50q0 -28 -39 -28q-37 0 -53 11q-19 13 -33 28l-152 168l-149 -168q-14 -15 -33 -28q-17 -11 -49 -11 q-35 0 -35 28z" />
<glyph unicode="&#xfc;" horiz-adv-x="1144" d="M168 512v475q0 39 17 59q18 21 59 21q40 0 58 -21q17 -20 17 -59v-475q0 -126 12 -205q12 -82 41 -125q30 -45 82 -61q54 -17 134 -17q56 0 125 11q70 11 112 22v850q0 38 18 59t58 21t58 -21t18 -59v-881q0 -60 -51 -77q-61 -20 -155 -37q-91 -17 -191 -17 q-133 0 -216 26q-81 25 -124 88q-43 62 -58 166q-14 97 -14 257zM328 1346q0 47 20 73q21 27 68 27q46 0 67 -27t21 -73q0 -50 -21 -78q-21 -29 -67 -29q-47 0 -68 29q-20 27 -20 78zM643 1346q0 46 21 73t67 27q47 0 68 -27q20 -26 20 -73q0 -51 -20 -78q-21 -29 -68 -29 q-46 0 -67 29q-21 28 -21 78z" />
<glyph unicode="&#xfd;" horiz-adv-x="1036" d="M70 1004q0 33 22 48q23 15 62 15q35 0 53 -15t29 -44l288 -852l289 852q21 59 80 59q74 0 74 -63q0 -7 -2 -21q-1 -6 -7 -20l-380 -1033q-44 -119 -79 -194q-36 -76 -73 -119q-36 -42 -81 -59t-101 -17q-40 0 -61 4q-22 4 -40 9q-47 11 -47 63q0 64 60 64q7 0 37 -6 q25 -5 38 -5q27 0 51 9q23 8 46 35q22 26 45 72q24 50 47 120l22 69l-364 988q-8 22 -8 41zM430 1210q0 24 16 47l121 197q10 18 35 33q22 14 72 14q53 0 53 -35q0 -21 -16 -41l-154 -204q-11 -15 -35 -28q-21 -11 -55 -11q-37 0 -37 28z" />
<glyph unicode="&#xfe;" horiz-adv-x="1159" d="M174 -373v1794q0 39 17 59q18 21 59 21q40 0 58 -21t18 -59v-391q39 13 117 29q70 14 173 14q234 0 331 -135q97 -134 97 -401q0 -281 -103 -421q-103 -141 -333 -141q-85 0 -164 14q-81 14 -118 27v-389q0 -37 -18 -58q-19 -22 -58 -22q-40 0 -59 22q-17 20 -17 58z M326 141q35 -14 112 -27q72 -12 154 -12q103 0 162 37q58 36 89 98q29 59 37 138q7 73 7 162q0 73 -8 151q-7 71 -39 131q-30 57 -89 92t-159 35q-88 0 -155 -10q-71 -10 -111 -27v-768z" />
<glyph unicode="&#xff;" horiz-adv-x="1036" d="M70 1004q0 33 22 48q23 15 62 15q35 0 53 -15t29 -44l288 -852l289 852q21 59 80 59q74 0 74 -63q0 -7 -2 -21q-1 -6 -7 -20l-380 -1033q-44 -119 -79 -194q-36 -76 -73 -119q-36 -42 -81 -59t-101 -17q-40 0 -61 4q-22 4 -40 9q-47 11 -47 63q0 64 60 64q7 0 37 -6 q25 -5 38 -5q27 0 51 9q23 8 46 35q22 26 45 72q24 50 47 120l22 69l-364 988q-8 22 -8 41zM272 1346q0 46 21 73t67 27q47 0 68 -27t21 -73q0 -50 -21 -78q-21 -29 -68 -29q-46 0 -67 29q-21 28 -21 78zM588 1346q0 47 20 73q21 27 68 27q46 0 67 -27t21 -73q0 -50 -21 -78 q-21 -29 -67 -29q-47 0 -68 29q-20 27 -20 78z" />
<glyph unicode="&#x152;" horiz-adv-x="1886" d="M131 711q0 173 30 307q30 132 96 221q65 88 174 133q108 45 263 45q118 0 203 -24h762q43 0 61 -18q19 -19 19 -50q0 -32 -19 -51t-61 -19h-557q70 -79 101 -196q31 -118 36 -281h383q44 0 61 -16q19 -17 19 -49t-19 -49t-61 -17h-383q-5 -179 -38 -302 q-36 -131 -105 -208h587q45 0 62 -17q18 -18 18 -50q0 -34 -18 -52t-62 -18h-796q-94 -25 -205 -25q-157 0 -265 48q-105 47 -169 139q-63 91 -90 229q-27 137 -27 320zM301 711q0 -120 10 -223q10 -107 48 -191t116 -134q79 -50 213 -50t213 50q78 49 117 134q38 83 49 191 q10 103 10 223q0 117 -11 211q-13 106 -51 182q-41 80 -117 128t-210 48t-210 -48t-117 -128q-39 -77 -50 -182q-10 -97 -10 -211z" />
<glyph unicode="&#x153;" horiz-adv-x="1816" d="M115 537q0 267 104 401q105 135 356 135q151 0 239 -51q89 -51 134 -150q45 99 128 150q82 51 218 51q224 0 319 -125t95 -368q0 -39 -17 -59q-18 -21 -59 -21l-614 -2q0 -82 10 -149q11 -71 42 -125t92 -87q60 -33 163 -33q100 0 176 17q71 16 103 16q30 0 44 -17 q15 -18 15 -46q0 -50 -47 -62q-54 -15 -147 -26q-91 -11 -193 -11q-139 0 -225 52q-85 51 -123 149q-46 -98 -132 -149q-87 -52 -233 -52q-129 0 -215 36q-85 36 -138 107q-53 72 -74 175q-21 105 -21 244zM272 537q0 -66 9 -160q8 -79 37 -139q30 -62 90 -99 q59 -37 161 -37q103 0 162 37q58 36 89 98q29 59 37 138q7 73 7 162q0 73 -8 151q-7 73 -38 131q-31 59 -89 92q-61 35 -160 35q-101 0 -160 -35q-60 -36 -90 -92q-31 -58 -38 -131q-9 -88 -9 -151zM1018 608h545q-1 55 -12 129q-9 61 -38 110t-81 77t-144 28 q-90 0 -142 -28q-53 -29 -80 -77q-28 -50 -37 -111q-10 -67 -11 -128z" />
<glyph unicode="&#x178;" horiz-adv-x="1216" d="M80 1362q0 23 22 36t58 13q39 0 59 -16t39 -52l358 -630l355 630q19 36 39 52t55 16q31 0 51 -13q21 -14 21 -36q0 -26 -23 -66l-426 -733v-504q0 -35 -18 -56t-62 -21q-42 0 -62 21q-20 22 -20 56v504l-426 733q-20 33 -20 66zM360 1690q0 46 21 73t68 27q46 0 67 -27 t21 -73q0 -50 -21 -78q-21 -29 -67 -29q-47 0 -68 29q-21 28 -21 78zM676 1690q0 47 20 73q21 27 68 27q46 0 67 -27t21 -73q0 -50 -21 -78q-21 -29 -67 -29q-47 0 -68 29q-20 27 -20 78z" />
<glyph unicode="&#x2c6;" horiz-adv-x="499" d="M-20 1210q0 20 24 50l156 204q14 16 30 25q21 12 60 12q38 0 61 -12q21 -11 33 -25l156 -204q22 -28 22 -50q0 -28 -39 -28q-37 0 -53 11q-19 13 -33 28l-151 168l-150 -168q-14 -15 -33 -28q-17 -11 -49 -11q-34 0 -34 28z" />
<glyph unicode="&#x2dc;" horiz-adv-x="499" d="M-72 1266q0 36 12 71q14 40 33 64q22 28 60 46q35 17 86 17q43 0 79 -18q33 -16 68 -42q30 -22 62 -42q30 -19 53 -19q46 0 65 28q19 29 19 46q0 21 13 34t40 13t40 -13t13 -34q0 -39 -11 -71q-13 -37 -34 -64q-22 -28 -59 -46q-35 -17 -86 -17q-43 0 -80 18t-69 42 t-60 42q-29 18 -53 18q-48 0 -66 -27t-18 -46q0 -20 -12 -34q-12 -13 -39 -13t-41 13q-15 14 -15 34z" />
<glyph unicode="&#x2000;" horiz-adv-x="926" />
<glyph unicode="&#x2001;" horiz-adv-x="1853" />
<glyph unicode="&#x2002;" horiz-adv-x="926" />
<glyph unicode="&#x2003;" horiz-adv-x="1853" />
<glyph unicode="&#x2004;" horiz-adv-x="617" />
<glyph unicode="&#x2005;" horiz-adv-x="463" />
<glyph unicode="&#x2006;" horiz-adv-x="308" />
<glyph unicode="&#x2007;" horiz-adv-x="308" />
<glyph unicode="&#x2008;" horiz-adv-x="231" />
<glyph unicode="&#x2009;" horiz-adv-x="370" />
<glyph unicode="&#x200a;" horiz-adv-x="102" />
<glyph unicode="&#x2010;" horiz-adv-x="706" d="M88 635q0 34 17 52q18 20 59 20h379q40 0 58 -20q17 -18 17 -52t-17 -52q-18 -20 -58 -20h-379q-41 0 -59 20q-17 18 -17 52z" />
<glyph unicode="&#x2011;" horiz-adv-x="706" d="M88 635q0 34 17 52q18 20 59 20h379q40 0 58 -20q17 -18 17 -52t-17 -52q-18 -20 -58 -20h-379q-41 0 -59 20q-17 18 -17 52z" />
<glyph unicode="&#x2012;" horiz-adv-x="706" d="M88 635q0 34 17 52q18 20 59 20h379q40 0 58 -20q17 -18 17 -52t-17 -52q-18 -20 -58 -20h-379q-41 0 -59 20q-17 18 -17 52z" />
<glyph unicode="&#x2013;" horiz-adv-x="1024" d="M0 635q0 34 17 52q18 20 59 20h872q41 0 59 -20q17 -18 17 -52t-17 -52q-18 -20 -59 -20h-872q-41 0 -59 20q-17 18 -17 52z" />
<glyph unicode="&#x2014;" horiz-adv-x="2048" d="M0 635q0 34 17 52q18 20 59 20h1896q41 0 59 -20q17 -18 17 -52t-17 -52q-18 -20 -59 -20h-1896q-41 0 -59 20q-17 18 -17 52z" />
<glyph unicode="&#x2018;" horiz-adv-x="567" d="M172 1182q0 27 6 55t20 67q19 52 34 88l53 121q15 33 47 33q37 0 37 -33q0 -10 -7 -24l-79 -195q48 0 71 -29q25 -31 25 -83q0 -48 -26 -79q-26 -30 -79 -30t-77 30q-25 31 -25 79z" />
<glyph unicode="&#x2019;" horiz-adv-x="567" d="M180 1450q0 48 25 78q24 28 78 28q53 0 78 -28q26 -29 26 -78q0 -26 -6 -55q-6 -31 -21 -67q-3 -8 -15 -38.5t-20 -50.5t-27.5 -63.5t-25.5 -57.5q-17 -35 -47 -35q-35 0 -35 33q0 11 7 25l79 196q-47 0 -71 30q-25 31 -25 83z" />
<glyph unicode="&#x201a;" horiz-adv-x="567" d="M180 88q0 48 25 79q24 30 78 30q53 0 78 -30q26 -31 26 -79q0 -27 -6 -55q-6 -31 -21 -67q-3 -8 -15 -38.5t-20 -50.5t-27.5 -63.5t-25.5 -57.5q-15 -32 -47 -32q-35 0 -35 32q0 11 7 25l79 194q-47 0 -71 30q-25 31 -25 83z" />
<glyph unicode="&#x201c;" horiz-adv-x="868" d="M172 1182q0 27 6 55q5 22 19 67q16 51 32 88q31 74 50 121q15 33 45 33q32 0 32 -33q0 -4 -2 -12l-4 -12l-76 -195q46 0 68 -29q23 -31 23 -83q0 -48 -23 -79q-22 -30 -74 -30q-50 0 -73 30q-23 31 -23 79zM485 1182q0 22 7 55q7 31 18 67q13 42 33 88q16 39 49 121 q15 33 45 33q33 0 33 -33q0 -4 -2 -12l-4 -12l-76 -195q45 0 68 -29q24 -30 24 -83q0 -49 -24 -79t-74 -30q-52 0 -74 30q-23 31 -23 79z" />
<glyph unicode="&#x201d;" horiz-adv-x="868" d="M180 1450q0 49 23 78q22 28 73 28t75 -28t24 -78q0 -26 -6 -55q-6 -28 -20 -67q-18 -51 -34 -89q-6 -15 -22.5 -55.5t-26.5 -65.5q-7 -15 -17 -25t-26 -10q-35 0 -35 33q0 4 2 12l5 13l75 196q-45 0 -67 30q-23 31 -23 83zM494 1450q0 50 22 78t74 28q51 0 75 -28 q23 -27 23 -78q0 -26 -6 -55q-7 -34 -19 -67q-18 -51 -34 -89q-6 -15 -22.5 -55.5t-26.5 -65.5q-6 -13 -18 -25q-10 -10 -25 -10q-33 0 -33 33q0 10 4 25l76 196q-46 0 -68 30q-22 29 -22 83z" />
<glyph unicode="&#x201e;" horiz-adv-x="868" d="M180 88q0 48 23 79q22 30 73 30t75 -30t24 -79q0 -27 -6 -55t-20 -67q-18 -51 -34 -89q-6 -15 -22.5 -55.5t-26.5 -65.5q-15 -32 -43 -32q-35 0 -35 32q0 5 2 13l5 12l75 194q-45 0 -67 30q-23 31 -23 83zM494 88q0 50 22 79q22 30 74 30q51 0 75 -30q23 -29 23 -79 q0 -27 -6 -55q-7 -34 -19 -67q-18 -51 -34 -89q-6 -15 -22.5 -55.5t-26.5 -65.5q-15 -32 -43 -32q-33 0 -33 32q0 10 4 25l76 194q-46 0 -68 30q-22 29 -22 83z" />
<glyph unicode="&#x2022;" horiz-adv-x="1024" d="M205 637q0 301 307 301t307 -301q0 -154 -77 -234q-76 -79 -230 -79t-230 79q-77 80 -77 234z" />
<glyph unicode="&#x2026;" d="M98 88q0 48 22 79q21 30 68 30q48 0 69 -30q22 -31 22 -79q0 -52 -22 -83q-21 -30 -69 -30q-47 0 -68 30q-22 31 -22 83zM477 88q0 48 22 79q21 30 68 30q48 0 69 -30t21 -79q0 -53 -21 -83t-69 -30q-47 0 -68 30q-22 31 -22 83zM854 88q0 48 23 79q23 30 69 30 q48 0 69 -30t21 -79q0 -53 -21 -83t-69 -30q-46 0 -69 30q-23 31 -23 83z" />
<glyph unicode="&#x202f;" horiz-adv-x="370" />
<glyph unicode="&#x2039;" horiz-adv-x="567" d="M68 702q0 28 24 58l201 258q17 23 40 36t58 13q47 0 47 -29q0 -8 -8 -26l-205 -310l205 -321q8 -18 8 -25q0 -12 -13 -21t-36 -9q-35 0 -57 13t-39 36l-201 270q-24 30 -24 57z" />
<glyph unicode="&#x203a;" horiz-adv-x="567" d="M129 356q0 7 8 25l203 321l-203 310q-8 18 -8 26q0 29 47 29q35 0 58 -13t40 -36l201 -258q25 -31 25 -58q0 -26 -25 -57l-201 -270q-17 -23 -40 -36t-58 -13q-23 0 -35 9t-12 21z" />
<glyph unicode="&#x205f;" horiz-adv-x="463" />
<glyph unicode="&#x20ac;" d="M49 727q0 64 76 64h127q12 311 129 469q117 157 364 157q71 0 138 -12q65 -11 114 -29q23 -8 37 -22q15 -15 15 -41q0 -60 -66 -60q-40 0 -91 16q-48 15 -128 15q-108 0 -175 -41t-104 -109q-37 -67 -52 -158q-16 -92 -17 -185h426q76 0 76 -64q0 -63 -76 -63h-428 q2 -113 13 -209q12 -105 48 -177q38 -77 106 -123t183 -46q37 0 74 5q33 4 60 12q25 7 52 12t49 5q35 0 49 -15q13 -14 13 -44q0 -29 -14 -42q-16 -14 -37 -24q-42 -18 -124 -31q-75 -12 -165 -12q-134 0 -224 44q-89 44 -144 131q-55 86 -77 215t-24 299h-127q-76 0 -76 63 z" />
<glyph unicode="&#x2122;" horiz-adv-x="1818" d="M35 1341q0 52 63 52h520q66 0 66 -52q0 -25 -16 -41t-50 -16h-194v-682q0 -26 -14 -40q-15 -15 -50 -15q-63 0 -63 55v682h-199q-33 0 -48 16t-15 41zM780 602v744q0 32 27 46q26 13 70 13q52 0 73 -17q22 -18 33 -42l262 -652l264 652q10 23 32 42q20 17 69 17 q43 0 68 -13q26 -14 26 -46v-744q0 -26 -14 -40q-15 -15 -48 -15q-63 0 -63 55v639l-260 -645q-11 -23 -28 -36t-52 -13t-52 13t-28 36l-260 645v-639q0 -26 -14 -40q-15 -15 -45 -15t-45 15t-15 40z" />
<glyph unicode="&#x25fc;" horiz-adv-x="1064" d="M0 0v1065h1065v-1065h-1065z" />
<glyph unicode="&#xfb01;" horiz-adv-x="1124" d="M174 61v1076q0 67 8 139q7 67 41 119q34 53 95 82q63 30 171 30q37 0 74 -3q38 -3 51 -7q50 -11 50 -61q0 -28 -17 -45t-45 -17q-14 0 -49 3q-34 3 -59 3q-55 0 -88 -15t-51 -45q-17 -28 -23 -73q-6 -43 -6 -96v-102h548q41 0 60 -22q18 -21 18 -58v-908q0 -37 -18 -58 t-60 -21q-40 0 -58 21q-17 20 -17 58v863h-473v-863q0 -37 -18 -58t-58 -21q-41 0 -59 21q-17 20 -17 58zM774 1346q0 46 24 73t76 27q54 0 78 -27q25 -28 25 -73q0 -48 -25 -78q-24 -29 -78 -29q-52 0 -76 29q-24 28 -24 78z" />
<glyph unicode="&#xfb02;" horiz-adv-x="1124" d="M174 61v1076q0 67 8 139q7 67 41 119q34 53 95 82q63 30 171 30q37 0 74 -3q38 -3 51 -7q50 -11 50 -61q0 -28 -17 -45t-45 -17q-14 0 -49 3q-34 3 -59 3q-55 0 -88 -15t-51 -45q-17 -28 -23 -73q-6 -43 -6 -96v-102h473v372q0 39 17 59q18 21 58 21q42 0 60 -21t18 -59 v-1360q0 -37 -18 -58t-60 -21q-40 0 -58 21q-17 20 -17 58v863h-473v-863q0 -37 -18 -58t-58 -21q-41 0 -59 21q-17 20 -17 58z" />
</font>
</defs>
</svg>
